Каньоны / The Canyons (Пол Шредер / Paul Schrader) [2013 г., триллер, драма, HDRip] Dub [Лицензия]

 

Создавать темы 24-Янв-2014 07:24

--Каньоны / The Canyons--««Фабрика грез» с черного входа»- -Производство: США
Год выпуска: 2013 г.
Жанр: триллер, драма
Продолжительность: 01:39:26--Мировая премьера: 29 июля 2013
Российская премьера: 28 ноября 2013, «Top Film Distribution»
Дата выхода DVD: 14 января 2014, «Lizard Cinema Trade»--Перевод: Профессиональный (полное дублирование) [Лицензия]--Режиссер: Пол Шредер / Paul Schrader--В ролях: Линдси Лохан, Джеймс Дин, Нолан Фанк, Аманда Брукс, Тениль Хьюстон, Гас Ван Сент, Джарод Эйнсон, Виктор Фишбарг, Джим Бивен--Описание: Фильм - о судьбе двух влюбленных в "городе греха", Лос-Анджелесе. Они молоды, жаждут славы и денег, одержимы страстью. По законам жанра, где-то рядом, естественно, оказывается смерть, и цепочка кровавых событий приводит к неожиданным последствиям.
Молодость, гламур, секс и Лос-Анджелес, где-то в 2012-м.-- --Качество видео: HDRip
Контейнер: AVI
Видео кодек: XviD
Аудио кодек: AC3
Видео: 720x304 (2.37:1), 23.976 fps, XviD build 50 ~1645 kbps avg, 0.31 bit/pixel
Аудио: 48 kHz, AC3 Dolby Digital, 3/2 (L,C,R,l,r) + LFE ch, ~448 kbps
Cубтитры: Отсутствуют

Media Info

Общее
Полное имя : H:\Torrent2\Kanj0ny.2013.D.HDRip.1.46GB_[pirat.ca].avi
Формат : AVI
Формат/Информация : Audio Video Interleave
Размер файла : 1,46 Гбайт
Продолжительность : 1 ч. 39 м.
Общий поток : 2103 Кбит/сек
Программа кодирования : VirtualDubMod 1.5.10.3 | www.virtualdub-fr.org || (build 2550/release)
Библиотека кодирования : VirtualDubMod build 2550/release
Видео
Идентификатор : 0
Формат : MPEG-4 Visual
Профиль формата : Advanced [email protected]
Параметр BVOP формата : 2
Параметр QPel формата : Нет
Параметр GMC формата : Без точки перехода
Параметр матрицы формата : Выборочная
Идентификатор кодека : XVID
Идентификатор кодека/Подсказка : XviD
Продолжительность : 1 ч. 39 м.
Битрейт : 1646 Кбит/сек
Ширина : 720 пикселей
Высота : 304 пикселя
Соотношение сторон : 2,35:1
Частота кадров : 23,976 кадра/сек
Цветовое пространство : YUV
Субдискретизация насыщенности : 4:2:0
Битовая глубина : 8 бит
Тип развёртки : Прогрессивная
Метод сжатия : С потерями
Бит/(Пиксели*Кадры) : 0.314
Размер потока : 1,14 Гбайт (78%)
Библиотека кодирования : XviD 1.2.1 (UTC 2008-12-04)
Аудио
Идентификатор : 1
Формат : AC-3
Формат/Информация : Audio Coding 3
Расширение режима : CM (complete main)
Параметр Endianness формата : Big
Идентификатор кодека : 2000
Продолжительность : 1 ч. 39 м.
Вид битрейта : Постоянный
Битрейт : 448 Кбит/сек
Каналы : 6 каналов
Расположение каналов : Front: L C R, Side: L R, LFE
Частота : 48,0 КГц
Битовая глубина : 16 бит
Метод сжатия : С потерями
Размер потока : 319 Мбайт (21%)
Выравнивание : Разделение по промежуткам
Продолжительность промежутка : 42 мс. (1,00 видеокадр)
Время предзагрузки промежутка : 500 мс.

Скриншоты

Трейлер
Яндекс.Метрика
Рейтинг@Mail.ru