План побега / Escape Plan (Микаэль Хофстрём / Mikael Hafstrom) [2013 г., боевик, триллер, детектив, HDRip] Dub [Чистый звук] + Original (Eng)

 

Создавать темы 24-Янв-2014 07:21

--План побега / Escape Plan--«Из самой надежной тюрьмы в одиночку убежать невозможно»- -Производство: США, Atmosphere Entertainment MM LLC, Boies/Schiller Film Group, Emmett/Furla Films, Envision Entertainment Corporation, Spiderwood Productions
Год выпуска: 2013 г.
Жанр: боевик, триллер, детектив
Продолжительность: 01:55:35--Мировая премьера: 18 июля 2013
Российская премьера: 17 октября 2013, «Централ Партнершип»--Перевод: Профессиональный (полное дублирование) [Чистый звук]
Оригинальный аудиопоток: английский--Режиссер: Микаэль Хофстрём / Mikael Hafstrom--В ролях: Сильвестр Сталлоне, Арнольд Шварценеггер, Джеймс Кэвизел, Фифти Сент, Винни Джонс, Винсент Д’Онофрио, Эми Райан, Фаран Таир, Сэм Нил, Мэтт Джералд--Описание: Один из самых выдающихся мировых специалистов по системам безопасности соглашается на последнюю рисковую операцию: сбежать из суперсекретной высокотехнологичной тюрьмы, которую называют «Гробницей». Преданный Рэй Бреслин вынужден прибегнуть к помощи напарника — заключенного Эмиля Ротмайера, чтобы разработать отчаянный и практически неосуществимый план побега из самой защищенной тюрьмы в мире!-- --Качество видео: HDRip
Контейнер: AVI
Видео кодек: XviD
Аудио кодек: AC3
Видео: 720x304 (2.37:1), 23.976 fps, XviD build 50 ~1819 kbps avg, 0.35 bit/pixel
Аудио 1: 48 kHz, AC3 Dolby Digital, 2/0 (L,R) ch, ~320 kbps rus
Аудио 2: 48 kHz, AC3 Dolby Digital, 3/2 (L,C,R,l,r) + LFE ch, ~384 kbps eng
Cубтитры: отсутствуют

Media Info

Общее
Полное имя : H:\Torrent2\Escape.Plan.2013.D.HDRip.2100Mb_[pirat.ca].avi
Формат : AVI
Формат/Информация : Audio Video Interleave
Профиль формата : OpenDML
Размер файла : 2,05 Гбайт
Продолжительность : 1 ч. 55 м.
Общий поток : 2541 Кбит/сек
Программа кодирования : VirtualDubMod 1.5.10.2 (build 2540/release)
Библиотека кодирования : VirtualDubMod build 2540/release
Видео
Идентификатор : 0
Формат : MPEG-4 Visual
Профиль формата : Advanced [email protected]
Параметр BVOP формата : 2
Параметр QPel формата : Нет
Параметр GMC формата : Без точки перехода
Параметр матрицы формата : Выборочная
Идентификатор кодека : XVID
Идентификатор кодека/Подсказка : XviD
Продолжительность : 1 ч. 55 м.
Битрейт : 1819 Кбит/сек
Ширина : 720 пикселей
Высота : 304 пикселя
Соотношение сторон : 2,35:1
Частота кадров : 23,976 кадра/сек
Цветовое пространство : YUV
Субдискретизация насыщенности : 4:2:0
Битовая глубина : 8 бит
Тип развёртки : Прогрессивная
Метод сжатия : С потерями
Бит/(Пиксели*Кадры) : 0.347
Размер потока : 1,47 Гбайт (72%)
Библиотека кодирования : XviD 1.2.1 (UTC 2008-12-04)
Аудио #1
Идентификатор : 1
Формат : AC-3
Формат/Информация : Audio Coding 3
Расширение режима : CM (complete main)
Параметр Endianness формата : Big
Идентификатор кодека : 2000
Продолжительность : 1 ч. 55 м.
Вид битрейта : Постоянный
Битрейт : 320 Кбит/сек
Каналы : 2 канала
Расположение каналов : Front: L R
Частота : 48,0 КГц
Битовая глубина : 16 бит
Метод сжатия : С потерями
Размер потока : 265 Мбайт (13%)
Выравнивание : Разделение по промежуткам
Продолжительность промежутка : 42 мс. (1,00 видеокадр)
Время предзагрузки промежутка : 500 мс.
Аудио #2
Идентификатор : 2
Формат : AC-3
Формат/Информация : Audio Coding 3
Расширение режима : CM (complete main)
Параметр Endianness формата : Big
Идентификатор кодека : 2000
Продолжительность : 1 ч. 55 м.
Вид битрейта : Постоянный
Битрейт : 384 Кбит/сек
Каналы : 6 каналов
Расположение каналов : Front: L C R, Side: L R, LFE
Частота : 48,0 КГц
Битовая глубина : 16 бит
Метод сжатия : С потерями
Размер потока : 317 Мбайт (15%)
Выравнивание : Разделение по промежуткам
Продолжительность промежутка : 42 мс. (1,00 видеокадр)
Время предзагрузки промежутка : 500 мс.

Скриншоты

Трейлер
Яндекс.Метрика
Рейтинг@Mail.ru