[ Сегодня на трекере фрилич! Идет свободное скачивание без начисления Download ]

Холодное сердце / Frozen (Крис Бак, Дженнифер Ли / Chris Buck, Jennifer Lee) [2013 г., мультфильм, фэнтези, комедия, приключения, семейный, DVDScr] Dub [Чистый звук]

 

Создавать темы 22-Янв-2014 03:05

--Холодное сердце / Frozen--«From the creators of 'Tangled' and 'Wreck-It Ralph'...»- -Производство: США / Walt Disney Animation Studios, Walt Disney Pictures
Год выпуска: 2013 г.
Жанр: мультфильм, фэнтези, комедия, приключения, семейный
Продолжительность: 01:40:46--Мировая премьера: 10 ноября 2013
Российская премьера: 12 декабря 2013, «WDSSPR»
Релиз на DVD: 29 апреля 2014, «Уолт Дисней Компани СНГ»
Релиз на Blu-Ray: 29 апреля 2014, «Уолт Дисней Компани СНГ»--Перевод: Профессиональный (полное дублирование) [Чистый звук]--Режиссер: Крис Бак, Дженнифер Ли / Chris Buck, Jennifer Lee--Роли озвучивали: Кристен Белл, Идина Мензел, Джонатан Грофф, Джош Гад, Сантино Фонтана, Алан Тьюдик, Киаран Хайндс, Крис Уильямс, Стивен Дж. Андерсон, Майа Уилсон--Описание: Когда древнее предсказание сбывается и королевство погружается в объятия вечной зимы, трое бесстрашных героев — принцесса Анна, отважный Кристофф и его верный олень Свен — отправляются в горы, чтобы найти сестру Анны, Эльзу, которая может снять со страны леденящее заклятие. По пути их ждет множество увлекательных сюрпризов и захватывающих приключений: встреча с мистическими троллями, знакомство с очаровательным снеговиком по имени Олаф, горные вершины покруче Эвереста и магия в каждой снежинке. Анне и Кристоффу предстоит сплотиться и противостоять могучей стихии, чтобы спасти королевство и тех, кто им дорог…-- --Качество видео: DVDScr
Контейнер: AVI
Видео кодек: XviD
Аудио кодек: AC3
Видео: 720x320 (2.25:1), 29.970 fps, ATI YVU12 4:2:0 Planar ~1571 kbps avg, 0.23 bit/pixel
Аудио: 48 kHz, AC3 Dolby Digital, 3/2 (L,C,R,l,r) + LFE ch, ~448 kbps
Cубтитры: Отсутствуют

Media Info

Общее
Полное имя : H:\Torrent2\Frozen.2013.D.DVDScr_[pirat.ca].avi
Формат : AVI
Формат/Информация : Audio Video Interleave
Размер файла : 1,43 Гбайт
Продолжительность : 1 ч. 40 м.
Общий поток : 2031 Кбит/сек
Программа кодирования : VirtualDubMod 1.5.10.3 (build 2550/release)
Библиотека кодирования : VirtualDubMod build 2550/release
Видео
Идентификатор : 0
Формат : MPEG-4 Visual
Профиль формата : Advanced [email protected]
Параметр BVOP формата : 2
Параметр QPel формата : Нет
Параметр GMC формата : Без точки перехода
Параметр матрицы формата : Default (H.263)
Режим смешивания : Сжатый битовый поток
Идентификатор кодека : XVID
Идентификатор кодека/Подсказка : XviD
Продолжительность : 1 ч. 40 м.
Битрейт : 1572 Кбит/сек
Ширина : 720 пикселей
Высота : 320 пикселей
Соотношение сторон : 2,25:1
Частота кадров : 29,970 кадров/сек
Цветовое пространство : YUV
Субдискретизация насыщенности : 4:2:0
Битовая глубина : 8 бит
Тип развёртки : Прогрессивная
Метод сжатия : С потерями
Бит/(Пиксели*Кадры) : 0.228
Размер потока : 1,11 Гбайт (77%)
Библиотека кодирования : XviD 64
Аудио
Идентификатор : 1
Формат : AC-3
Формат/Информация : Audio Coding 3
Расширение режима : CM (complete main)
Параметр Endianness формата : Big
Идентификатор кодека : 2000
Продолжительность : 1 ч. 40 м.
Вид битрейта : Постоянный
Битрейт : 448 Кбит/сек
Каналы : 6 каналов
Расположение каналов : Front: L C R, Side: L R, LFE
Частота : 48,0 КГц
Битовая глубина : 16 бит
Метод сжатия : С потерями
Размер потока : 323 Мбайт (22%)
Выравнивание : Разделение по промежуткам
Продолжительность промежутка : 33 мс. (1,00 видеокадр)
Время предзагрузки промежутка : 500 мс.

Скриншоты

Трейлер

Создавать темы 22-Янв-2014 09:09 (спустя 6 часов)

Повтор: http://ddgroupclub.ru/viewtopic.php?t=7222
Яндекс.Метрика
Рейтинг@Mail.ru