Вертикаль (Борис Дуров, Станислав Говорухин) [1967, Приключения, Драма, DVD5] Реставрация

 

Создавать темы 03-Июл-2017 18:39

- Вертикаль - Производство: СССР, Одесская киностудия
Жанр: Приключения, Драма
Режиссер: Борис Дуров, Станислав Говорухин
Актеры: Владимир Высоцкий, Маргарита Кошелева, Геннадий Воропаев, Александр Фадеев, Георгий Кулбуш, Лариса Лужина, Бухути Закариадзе, М. Анучринов, Л. Глисеев, Л. Кахилин
Описание:
Группе альпинистов, идущих на штурм непокоренной кавказской вершины, пика Ор-Тау, послан сигнал о немедленном возвращении: надвигается грозовой циклон. Связист скрывает от товарищей это предупреждение, и они оказываются в критической ситуации. Трагедии удается избежать только благодаря мужеству спасателей и опыту самих спортсменов…


Возраст: 0+ (для любой зрительской аудитории)
Релиз от: smithland
Продолжительность: 01:12:47
Качество видео: DVD5
Видео: MPEG-2, [email protected], ~7427 kb/s
Аудио: AC3, 6 ch, 384 kb/s

МИ

General
Complete name                  : Вертикаль
Format                         : MPEG-PS
File size                      : 4.05 GiB
Duration                       : 1 h 12 min
Overall bit rate mode          : Variable
Overall bit rate               : 7 970 kb/s
Video
ID                             : 224 (0xE0)
Format                         : MPEG Video
Format version                 : Version 2
Format profile                 : [email protected]
Format settings, BVOP          : Yes
Format settings, Matrix        : Default
Format settings, GOP           : M=3, N=12
Duration                       : 1 h 12 min
Bit rate mode                  : Variable
Bit rate                       : 7 427 kb/s
Maximum bit rate               : 9 200 kb/s
Width                          : 704 pixels
Height                         : 480 pixels
Display aspect ratio           : 16:9
Frame rate                     : 29.970 (30000/1001) FPS
Standard                       : Component
Color space                    : YUV
Chroma subsampling             : 4:2:0
Bit depth                      : 8 bits
Scan type                      : Progressive
Compression mode               : Lossy
Bits/(Pixel*Frame)             : 0.733
Time code of first frame       : 00:00:00:00
Time code source               : Group of pictures header
GOP, Open/Closed               : Closed
Stream size                    : 3.78 GiB (93%)
Color primaries                : BT.601 NTSC
Transfer characteristics       : BT.601
Matrix coefficients            : BT.601
Audio
ID                             : 189 (0xBD)-128 (0x80)
Format                         : AC-3
Format/Info                    : Audio Coding 3
Mode extension                 : CM (complete main)
Format settings, Endianness    : Big
Muxing mode                    : DVD-Video
Duration                       : 1 h 12 min
Bit rate mode                  : Constant
Bit rate                       : 384 kb/s
Channel(s)                     : 6 channels
Channel positions              : Front: L C R, Side: L R, LFE
Sampling rate                  : 48.0 kHz
Frame rate                     : 31.250 FPS (1536 spf)
Bit depth                      : 16 bits
Compression mode               : Lossy
Delay relative to video        : -34 ms
Stream size                    : 200 MiB (5%)

Дополнительная информация:

Собственная реставрация.
Удалены мелкие дефекты плёнки, исправлен аспект.
Меню отсутствует.
Оригинальный DVD: http://www.vobzor.com/page.php?id=35
Скриншоты:

ещё скриншотов:

Рейтинг@Mail.ru