Стыд / Shame ( Стив МакКуин) [2011, Драма, BDRip 1080p]

 

Создавать темы 07-Окт-2013 22:03

- Информация о фильме
Русское название: Стыд
Оригинальное название: Shame
Год выхода: 2011
Жанр: Драма
Режиссер: Стив МакКуин
Выпущено: Великобритания
Продолжительность: 01:41:08
Перевод: Дублированный, Авторский одноголосый (Ю.Сербин)
В ролях: Майкл Фассбендер, Кэри Маллиган, Джеймс Бэдж Дэйл, Николь Бихэйр, Алекс Манетт, Люсиль Уолтерс, Мари-Анхе Рамирес, Ханна Уэр, Элизабет Масуччи, Рэйчел Фаррар-Сюжет фильма
Главный герой - житель Нью-Йорка, страдающий от эротомании и неспособный контролировать свою сексуальную жизнь. Он пытается обрести поддержку своих родных, а также ищет помощи у сотрудников.-Файл
Качество: BDRip 1080p (исходник Blu-ray Disc)
Видео: 1920x814, 9257 Кбит/сек, 23,976 кадр/сек, AVC, x264, [email protected], 2.35:1, 0.247 Бит/[Пиксели*Кадры], 2pass
Аудио 1: AC-3, 640 Кбит/сек, 6 канала(ов), 48,0 КГц - Дублированный / Русский
Аудио 2: AC-3, 448 Кбит/сек, 6 канала(ов), 48,0 КГц - Авторский одноголосый (Ю.Сербин) / Русский
Аудио 3: AC-3, 640 Кбит/сек, 6 канала(ов), 48,0 КГц - Оригинал / Английский
Субтитры: Русские | Полные, Английские | Полные
Чаптеры: Есть- -

Скриншоты

Media Info

Format : Matroska
Format version : Version 2
File size : 7.75 GiB
Duration : 1h 41mn
Overall bit rate : 11.0 Mbps
Movie name : Стыд.(2011).BDRip.1080p.[envy]
Encoded date : UTC 2013-10-07 19:04:51
Writing application : mkvmerge v5.8.0 ('No Sleep / Pillow') built on Sep 2 2012 15:37:04
Writing library : libebml v1.2.3 + libmatroska v1.3.0
Video
ID : 1
Format : AVC
Format/Info : Advanced Video Codec
Format profile : [email protected]
Format settings, CABAC : Yes
Format settings, ReFrames : 5 frames
Codec ID : V_MPEG4/ISO/AVC
Duration : 1h 41mn
Bit rate : 9 257 Kbps
Width : 1 920 pixels
Height : 814 pixels
Display aspect ratio : 2.35:1
Frame rate mode : Constant
Frame rate : 23.976 fps
Color space : YUV
Chroma subsampling : 4:2:0
Bit depth : 8 bits
Scan type : Progressive
Bits/(Pixel*Frame) : 0.247
Stream size : 6.38 GiB (82%)
Title : Стыд.(2011).BDRip.1080p.[envy]
Writing library : x264 core 138 r2358 9e941d1
Encoding settings : cabac=1 / ref=5 / deblock=1:-3:-3 / analyse=0x3:0x133 / me=umh / subme=11 / psy=1 / psy_rd=1.00:0.00 / mixed_ref=1 / me_range=32 / chroma_me=1 / trellis=2 / 8x8dct=1 / cqm=0 / deadzone=21,11 / fast_pskip=0 / chroma_qp_offset=-2 / threads=12 / lookahead_threads=1 / sliced_threads=0 / nr=0 / decimate=1 / interlaced=0 / bluray_compat=0 / constrained_intra=0 / bframes=6 / b_pyramid=2 / b_adapt=2 / b_bias=0 / direct=3 / weightb=1 / open_gop=0 / weightp=2 / keyint=240 / keyint_min=23 / scenecut=40 / intra_refresh=0 / rc=2pass / mbtree=0 / bitrate=9257 / ratetol=2.0 / qcomp=0.60 / qpmin=0 / qpmax=69 / qpstep=4 / cplxblur=20.0 / qblur=0.5 / ip_ratio=1.40 / pb_ratio=1.30 / aq=1:0.80
Language : English
Default : Yes
Forced : No
Audio #1
ID : 2
Format : AC-3
Format/Info : Audio Coding 3
Mode extension : CM (complete main)
Format settings, Endianness : Big
Codec ID : A_AC3
Duration : 1h 41mn
Bit rate mode : Constant
Bit rate : 640 Kbps
Channel count : 6 channels
Channel positions : Front: L C R, Side: L R, LFE
Sampling rate : 48.0 KHz
Bit depth : 16 bits
Compression mode : Lossy
Stream size : 463 MiB (6%)
Title : Дубляж
Language : Russian
Default : Yes
Forced : No
Audio #2
ID : 3
Format : AC-3
Format/Info : Audio Coding 3
Mode extension : CM (complete main)
Format settings, Endianness : Big
Codec ID : A_AC3
Duration : 1h 41mn
Bit rate mode : Constant
Bit rate : 448 Kbps
Channel count : 6 channels
Channel positions : Front: L C R, Side: L R, LFE
Sampling rate : 48.0 KHz
Bit depth : 16 bits
Compression mode : Lossy
Stream size : 324 MiB (4%)
Title : Ю.Сербин
Language : Russian
Default : No
Forced : No
Audio #3
ID : 4
Format : AC-3
Format/Info : Audio Coding 3
Mode extension : CM (complete main)
Format settings, Endianness : Big
Codec ID : A_AC3
Duration : 1h 41mn
Bit rate mode : Constant
Bit rate : 640 Kbps
Channel count : 6 channels
Channel positions : Front: L C R, Side: L R, LFE
Sampling rate : 48.0 KHz
Bit depth : 16 bits
Compression mode : Lossy
Stream size : 463 MiB (6%)
Title : Оригинал
Language : English
Default : No
Forced : No
Text #1
ID : 5
Format : UTF-8
Codec ID : S_TEXT/UTF8
Codec ID/Info : UTF-8 Plain Text
Title : Полные
Language : Russian
Default : No
Forced : No
Text #2
ID : 6
Format : UTF-8
Codec ID : S_TEXT/UTF8
Codec ID/Info : UTF-8 Plain Text
Title : Full
Language : English
Default : No
Forced : No
Menu
00:00:00.000 : :Chapter 01
00:09:10.215 : :Chapter 02
00:11:11.420 : :Chapter 03
00:12:51.020 : :Chapter 04
00:18:38.534 : :Chapter 05
00:22:56.083 : :Chapter 06
00:24:57.704 : :Chapter 07
00:26:25.792 : :Chapter 08
00:28:57.193 : :Chapter 09
00:34:04.083 : :Chapter 10
00:37:18.152 : :Chapter 11
00:42:53.487 : :Chapter 12
00:46:00.132 : :Chapter 13
00:53:37.297 : :Chapter 14
00:56:35.225 : :Chapter 15
01:00:27.957 : :Chapter 16
01:08:03.829 : :Chapter 17
01:09:49.560 : :Chapter 18
01:16:04.977 : :Chapter 19
01:22:47.587 : :Chapter 20
01:26:36.232 : :Chapter 21
01:31:31.277 : :Chapter 22
01:34:37.296 : :Chapter 23
01:36:23.778 : :Chapter 24
-
Яндекс.Метрика
Рейтинг@Mail.ru