[ Сегодня на трекере фрилич! Идет свободное скачивание без начисления Download ]

Афера по-американски / American Hustle (Дэвид О. Расселл / David O. Russell) [2013 г., драма, комедия, DVDScr] MVO [Студия "Paradox"]

 

Создавать темы 19-Янв-2014 10:54

--Афера по-американски / American Hustle-«Everyone Hustles To Survive»- Производство: США, Annapurna Pictures
Год выпуска: 2013 г.
Жанр: драма, комедия
Продолжительность: 02:13:09--Мировая премьера: 12 декабря 2013
Премьера (РФ): 13 февраля 2014, «Top Film Distribution»--Перевод: Любительский (многоголосый, закадровый) [Студия "Paradox"]--Режиссер: Дэвид О. Расселл / David O. Russell--В ролях: Кристиан Бэйл, Брэдли Купер, Эми Адамс, Джереми Реннер, Дженнифер Лоуренс, Луис С.К., Джек Хьюстон, Майкл Пенья, Ши Уигхэм, Алессандро Нивола--Описание: В основе сюжета фильма реальная спецоперация, проводимая в конце 70-х — начале 80-х ФБР под кодовым названием Abscam. Она изначально была нацелена на расследование торговли краденым товаром. ФБР собиралось внедрить в преступную среду своих агентов под видом посредников, скупающих краденые шедевры для богатых коллекционеров Ближнего Востока. Впоследствии операция превратилась в изобличение коррупции на разных уровнях.--- --Качество видео: DVDScr
Контейнер: AVI
Видео кодек: XviD
Аудио кодек: AC3
Видео: 720x304 (2.37:1), 23.976 fps, XviD MPEG-4 ~1399 kbps avg, 0.27 bit/pixel
Аудио: 48 kHz, AC3 Dolby Digital, 2/0 (L,R) ch, ~192 kbps
Cубтитры: отсутствуют

Media Info

Общее
Полное имя : H:\Torrent2\AfePa.p0.ameP1kaHCK1.2013.L.DVDScr.1.46Gb_[pirat.ca].avi
Формат : AVI
Формат/Информация : Audio Video Interleave
Размер файла : 1,49 Гбайт
Продолжительность : 2 ч. 13 м.
Общий поток : 1601 Кбит/сек
Программа кодирования : VirtualDubMod 1.5.10.2 (build 2540/release)
Библиотека кодирования : VirtualDubMod build 2540/release
Видео
Идентификатор : 0
Формат : MPEG-4 Visual
Профиль формата : Advanced [email protected]
Параметр BVOP формата : 2
Параметр QPel формата : Да
Параметр GMC формата : Без точки перехода
Параметр матрицы формата : Default (H.263)
Режим смешивания : Сжатый битовый поток
Идентификатор кодека : XVID
Идентификатор кодека/Подсказка : XviD
Продолжительность : 2 ч. 13 м.
Битрейт : 1399 Кбит/сек
Ширина : 720 пикселей
Высота : 304 пикселя
Соотношение сторон : 2,35:1
Частота кадров : 23,976 кадра/сек
Цветовое пространство : YUV
Субдискретизация насыщенности : 4:2:0
Битовая глубина : 8 бит
Тип развёртки : Прогрессивная
Метод сжатия : С потерями
Бит/(Пиксели*Кадры) : 0.267
Размер потока : 1,30 Гбайт (87%)
Библиотека кодирования : XviD 1.2.1 (UTC 2008-12-04)
Аудио
Идентификатор : 1
Формат : AC-3
Формат/Информация : Audio Coding 3
Расширение режима : CM (complete main)
Параметр Endianness формата : Big
Идентификатор кодека : 2000
Продолжительность : 2 ч. 13 м.
Вид битрейта : Постоянный
Битрейт : 192 Кбит/сек
Каналы : 2 канала
Расположение каналов : Front: L R
Частота : 48,0 КГц
Битовая глубина : 16 бит
Метод сжатия : С потерями
Размер потока : 183 Мбайт (12%)
Выравнивание : Разделение по промежуткам
Продолжительность промежутка : 42 мс. (1,00 видеокадр)
Время предзагрузки промежутка : 500 мс.

Скриншоты

Трейлер
Яндекс.Метрика
Рейтинг@Mail.ru