Они сражались за Родину (Сергей Бондарчук) [1975 г., драма, военный, история, BDRip, 720p]

 

Создавать темы 10-Май-2017 08:21

Они сражались за Родину- Производство: Сергей Бондарчук
Жанр: драма, военный, история
Год выпуска: 1975
Продолжительность: 02:37:25
В ролях: Василий Шукшин, Вячеслав Тихонов, Сергей Бондарчук, Георгий Бурков, Юрий Никулин, Иван Лапиков, Николай Губенко, Андрей Ростоцкий, Николай Волков, Николай Шутько.-Описание: Июль 1942 года. На подступах к Сталинграду обескровленные, измотанные советские войска ведут тяжелые оборонительные бои, неся огромные потери… Фильм рассказывает о подвиге рядовых солдат, любви к родной земле, об истинной цене победы…-Качество видео: BDRip
Контейнер: MKV
Стандарт разрешения: 720p
Видео кодек: H.264/AVC
Аудио кодек: DTS, AC3, FLAC
Видео: 992x720 at 23.976 fps, [email protected], ~9832 kbps avg
Аудио: Russian:48 kHz, DTS, 3/2 (L,C,R,l,r) + LFE ch, ~1509 kbps avg
Аудио #2: Russian: 48 kHz, AC3, 3/2 (L,C,R,l,r) + LFE ch, ~448 kbps avg
Аудио #3: Russian: 48 kHz, FLAC, 1 ch, ~693kbps avg
Cубтитры: отсутствуют-Полная реставрация изображения и звука. Исходные киноматериалы подготовлены Госфильмофондом России. Покадровая цифровая реставрация изображения, ремастеринг звука и авторинг проведены объединением «Крупный план».-

Знаете ли вы, что...:

• Съёмки фильма стартовали в мае 1974 года на хуторе Мелологовский (Волгоградская область) и продолжались до октября.
• Шолохов сначала отказал Сергею Бондарчуку экранизировать его роман, но впоследствии согласился.
• Лучший фильм по опросу журнала «Советский экран» в 1976 году.
• Это был последний фильм Василия Шукшина, во время съемок которого он скончался. Его героя Лопахина озвучивал Игорь Ефимов.
• Занимает по посещаемости 88-е место среди отечественных фильмов за всю историю советского кинопроката.
• Фильм снимался к 30-ти летию победы в Великой Отечественной Войне по одноименному незаконченному роману Михаила Шолохова.
• Во время съёмок большая часть съёмочной группы размещалась на теплоходе «Дунай», который «Мосфильм» арендовал у Ростовского пароходства.
• В настоящее время полностью проржавевшее судно доживает свой век на одном из судоремонтных заводов на Дону.
• В ночь на 2 октября 1974 года умер Василий Шукшин. Съемки были приостановлены. Некоторые сцены с участием его героя были досняты в Москве с привлечением дублера.
• Хутор Мелологовский уже не существует, на его месте голая степь.
• Во всех сценах атаки «мессеров» летают реактивные самолеты L-29 Волгоградского УАЦ ДОСААФ.

Media Info:

Код:
Format : Matroska
Format version : Version 4 / Version 2
File size : 13.8 GiB
Duration : 2h 38mn
Overall bit rate mode : Variable
Overall bit rate : 12.4 Mbps
Encoded date : UTC 2015-07-07 13:24:12
Writing application : mkvmerge v7.9.0 ('Birds') 64bit
Writing library : libebml v1.3.1 + libmatroska v1.4.2
Attachements : cover.jpg
DURATION : 02:38:57.184000000
NUMBER_OF_FRAMES : 894111
NUMBER_OF_BYTES : 1798951332
_STATISTICS_WRITING_APP : mkvmerge v7.9.0 ('Birds') 64bit
_STATISTICS_WRITING_DATE_UT : 2015-07-07 13:24:12
_STATISTICS_TAGS : BPS DURATION NUMBER_OF_FRAMES NUMBER_OF_BYTES
Video
ID : 1
Format : AVC
Format/Info : Advanced Video Codec
Format profile : [email protected]
Format settings, CABAC : Yes
Format settings, ReFrames : 11 frames
Codec ID : V_MPEG4/ISO/AVC
Duration : 2h 38mn
Width : 992 pixels
Height : 720 pixels
Display aspect ratio : 1.378
Frame rate mode : Constant
Frame rate : 23.976 fps
Color space : YUV
Chroma subsampling : 4:2:0
Bit depth : 8 bits
Scan type : Progressive
Writing library : x264 core 146 r0+2586 e393126 t_mod_Custom [[email protected] X86_64]
Encoding settings : cabac=1 / ref=11 / deblock=1:-3:-3 / analyse=0x3:0x133 / me=esa / subme=9 / psy=1 / fade_compensate=0.00 / psy_rd=1.05:0.05 / mixed_ref=1 / me_range=24 / chroma_me=1 / trellis=2 / 8x8dct=1 / cqm=0 / deadzone=21,11 / fast_pskip=0 / chroma_qp_offset=-3 / threads=6 / lookahead_threads=1 / sliced_threads=0 / nr=0 / decimate=1 / interlaced=0 / bluray_compat=0 / constrained_intra=0 / fgo=0 / bframes=12 / b_pyramid=2 / b_adapt=2 / b_bias=0 / direct=3 / weightb=1 / open_gop=0 / weightp=2 / keyint=250 / keyint_min=23 / scenecut=40 / intra_refresh=0 / rc_lookahead=60 / rc=crf / mbtree=0 / crf=16.0000 / qcomp=0.60 / qpmin=0:0:0 / qpmax=69:69:69 / qpstep=4 / vbv_maxrate=62500 / vbv_bufsize=78125 / crf_max=0.0 / nal_hrd=none / filler=0 / ip_ratio=1.40 / pb_ratio=1.30 / aq=3:0.80 / aq-sensitivity=10.00 / aq-factor=1.00:1.00:1.00 / aq2=0 / aq3=0
Language : English
Default : Yes
Forced : No
Color primaries : BT.709
Transfer characteristics : BT.709
Matrix coefficients : BT.709
Color range : Limited
DURATION : 02:37:25.311000000
NUMBER_OF_FRAMES : 226461
NUMBER_OF_BYTES : 11609270985
_STATISTICS_WRITING_APP : mkvmerge v7.9.0 ('Birds') 64bit
_STATISTICS_WRITING_DATE_UT : 2015-07-07 13:24:12
_STATISTICS_TAGS : BPS DURATION NUMBER_OF_FRAMES NUMBER_OF_BYTES
Audio #1
ID : 2
Format : DTS
Format/Info : Digital Theater Systems
Mode : 16
Format settings, Endianness : Big
Codec ID : A_DTS
Duration : 2h 38mn
Bit rate mode : Constant
Bit rate : 1 509 Kbps
Channel(s) : 6 channels
Channel positions : Front: L C R, Side: L R, LFE
Sampling rate : 48.0 KHz
Bit depth : 24 bits
Compression mode : Lossy
Stream size : 1.68 GiB (12%)
Language : Russian
Default : Yes
Forced : No
Audio #2
ID : 3
Format : AC-3
Format/Info : Audio Coding 3
Mode extension : CM (complete main)
Format settings, Endianness : Big
Codec ID : A_AC3
Duration : 2h 38mn
Bit rate mode : Constant
Bit rate : 448 Kbps
Channel(s) : 6 channels
Channel positions : Front: L C R, Side: L R, LFE
Sampling rate : 48.0 KHz
Bit depth : 16 bits
Compression mode : Lossy
Stream size : 509 MiB (4%)
Language : Russian
Default : No
Forced : No
Audio #3
ID : 4
Format : FLAC
Format/Info : Free Lossless Audio Codec
Codec ID : A_FLAC
Duration : 2h 38mn
Bit rate mode : Variable
Channel(s) : 1 channel
Sampling rate : 48.0 KHz
Bit depth : 24 bits
Writing library : libFLAC 1.2.1 (UTC 2007-09-17)
Language : Russian
Default : No
Forced : No
Menu
00:00:00.000 : en:00:00:00.000
00:07:34.454 : en:00:07:34.454
00:18:17.096 : en:00:18:17.096
00:24:18.457 : en:00:24:18.457
00:31:00.859 : en:00:31:00.859
00:41:29.487 : en:00:41:29.487
00:50:25.022 : en:00:50:25.022
00:58:38.515 : en:00:58:38.515
01:12:39.355 : en:01:12:39.355
01:21:33.514 : en:01:21:33.514
01:31:06.294 : en:01:31:06.294
01:41:02.682 : en:01:41:02.682
01:48:47.354 : en:01:48:47.354
01:54:57.724 : en:01:54:57.724
02:02:08.947 : en:02:02:08.947
02:10:55.681 : en:02:10:55.681
02:18:56.161 : en:02:18:56.161
02:28:51.798 : en:02:28:51.798

Скриншоты:

Создавать темы 10-Май-2017 16:12 (спустя 7 часов)

не понял это вся эпилогия шукшина или 1 только фильм с таким весоом

Создавать темы 10-Май-2017 17:27 (спустя 1 час 15 минут)

starik2014, с разрешением 720р и битрейдом видео ~9832 kbps и 3 звуковыми дорожками - всё возможно

Создавать темы 10-Май-2017 17:41 (спустя 14 минут)

Они сражались за Родину в двух частях.

Создавать темы 11-Май-2017 08:55 (спустя 15 часов)

starik2014 писал(а):

95958не понял это вся эпилогия шукшина или 1 только фильм с таким весоом
В двух частях....
Рейтинг@Mail.ru