Географ глобус пропил (Александр Велединский) [2013, драма, DVDRip]

 

Создавать темы 18-Янв-2014 12:58

Географ глобус пропил
Страна: Россия
Жанр: драма
Год выпуска: 2013
Продолжительность: 02:04:51
Режиссёр: Александр Велединский
В ролях: Константин Хабенский, Елена Лядова, Александр Робак, Евгения Брик, Анна Уколова, Агриппина Стеклова, Евгения Крегжде, Максим Лагашкин, Анфиса Черных, Анастасия Золотко
Описание: Действие фильма происходит в 2012 году. Главный герой, 37-летний биолог Виктор Служкин (Константин Хабенский), от безденежья устраивается работать в школу учителем географии. В его жизни множество проблем: отсутствие денег, ссоры с женой Надей (Елена Лядова), связи на стороне, конфликты на новой работе с учениками и завучем... И ощущение бесконечного одиночества...
Доп. информация: сэмпл
Качество видео: DVDRip
Формат видео: AVI
Видео: 720x304 (2.37:1), 24.000 fps, XviD build 73 ~1473 kbps avg, 0.28 bit/pixel
Аудио: 48 kHz, AC3 Dolby Digital, 2/0 (L,R) ch, ~192 kbps

MediaInfo

General
Complete name : C:\***\Geograf.globus.propil.2013.avi
Format : AVI
Format/Info : Audio Video Interleave
File size : 1.46 GiB
Duration : 2h 4mn
Overall bit rate : 1 675 Kbps
Writing application : VirtualDubMod 1.5.10.3 (build 2550/release)
Writing library : VirtualDubMod build 2550/release
Video
ID : 0
Format : MPEG-4 Visual
Format profile : Advanced [email protected]
Format settings, BVOP : 1
Format settings, QPel : No
Format settings, GMC : No warppoints
Format settings, Matrix : Default (MPEG)
Codec ID : XVID
Codec ID/Hint : XviD
Duration : 2h 4mn
Bit rate : 1 473 Kbps
Width : 720 pixels
Height : 304 pixels
Display aspect ratio : 2.35:1
Frame rate : 24.000 fps
Color space : YUV
Chroma subsampling : 4:2:0
Bit depth : 8 bits
Scan type : Progressive
Compression mode : Lossy
Bits/(Pixel*Frame) : 0.280
Stream size : 1.29 GiB (88%)
Writing library : XviD 73
Audio
ID : 1
Format : AC-3
Format/Info : Audio Coding 3
Mode extension : CM (complete main)
Codec ID : 2000
Duration : 2h 4mn
Bit rate mode : Constant
Bit rate : 192 Kbps
Channel(s) : 2 channels
Channel positions : Front: L R
Sampling rate : 48.0 KHz
Bit depth : 16 bits
Compression mode : Lossy
Stream size : 171 MiB (11%)
Alignment : Split accross interleaves
Interleave, duration : 42 ms (1.00 video frame)
Interleave, preload duration : 500 ms

Скриншот c названием фильма

Скриншоты

.
Яндекс.Метрика
Рейтинг@Mail.ru