[ Сегодня на трекере фрилич! Идет свободное скачивание без начисления Download ]

Петля времени (2014) HDTV [1080i] [серии 1-4 из 4]

 

Создавать темы 18-Янв-2014 00:05

-Петля времени (2014) HDTV [1080i] [серии 1-4 из 4] - Год выпуска: 2014
Жанр: Детектив, Мистика
Выпущено: Россия, "Всемирные российские студии"
Перевод: Не требуется
Субтитры: Отсутствуют
Дата российской премьеры: 13 января 2014
Режиссер: Юрий Ильин
Актеры: Илья Оболонков, Елизавета Пащенко, Андрей Вальц, Эльмира Мирэль, Владимир Никитин, Степан Старчиков, Александр Клюквин, Сергей Астахов, Алиса Сапегина, Антонина Дивина, Дарья Егорова, Антонина Комиссарова
Описание фильма:
Психология каждого отдельно взятого человека – вещь удивительно тонкая, непредсказуемая, и никто не может сделать прогноз на тему того, как психика ответит на то или иное событие, тем более, когда дело касается перемещения во времени. Отечественный кинематограф делает уверенные шаги в освоении этой интересной сферы. Авторы предлагают четыре эпизода истории, в которой густо намешаны мистика и детектив, и усилено все это большим количеством невероятных интриг.Все начинается в наше время. На дворе 2013-й год. Столичные сыщики выезжают в район старинного особняка. Эксперт-криминалист Екатерина Лужина и оперуполномоченный Антон Ермолаев еще не знают, что дело, связанное с убийством, совершенном во времена другой эпохи, необъяснимым способом перенесет их в ту самую эпоху. Детективы оказываются в другом мире, другом тысячелетии, которое диктует свои законы.Атмосферу девятнадцатого века нельзя назвать дружелюбной. Местная полиция считает делом чести разобраться с появлением странных «чужаков», а также пытается воспользоваться редкой возможностью и навешивает на «гостей» самые жуткие преступления. Герои невольно вовлечены в сложнейшую для осознания ситуацию. Но желание вернуться назад сильнее. Надо любой ценой выжить, найти настоящих преступников. Главное – не потерять себя.
Продолжительность: 1 x ~ 00:45:00
Качество видео: HDTV [1080i]
Видеокодек: AVC
Битрейт видео: ~5879 kbps
Размер кадра: 1920x1080
Аудиокодек: MP2 2.0
Битрейт аудио: 256 kbps

Mediainfo

Общее
Идентификатор : 1 (0x1)
Полное имя : H:\Petlya vremeni 1080\Petlya.vremeni.(1.seriya.iz.4).2013.HDTV.(1080i).ts
Формат : MPEG-TS
Размер файла : 2,01 Гбайт
Продолжительность : 44 м.
Режим общего битрейта : Переменный
Общий поток : 6457 Кбит/сек
Видео
Идентификатор : 69 (0x45)
Идентификатор меню : 1 (0x1)
Формат : AVC
Формат/Информация : Advanced Video Codec
Профиль формата : [url=mailto:[email protected]][email protected][/url]
Параметр CABAC формата : Да
Параметр ReFrames формата : 3 кадра
Идентификатор кодека : 27
Продолжительность : 44 м.
Битрейт : 5879 Кбит/сек
Ширина : 1920 пикселей
Высота : 1080 пикселей
Соотношение сторон : 16:9
Частота кадров : 25,000 кадров/сек
Цветовое пространство : YUV
Субдискретизация насыщенности : 4:2:0
Битовая глубина : 8 бит
Тип развёртки : Прогрессивная
Бит/(Пиксели*Кадры) : 0.113
Размер потока : 1,83 Гбайт (91%)
Аудио
Идентификатор : 68 (0x44)
Идентификатор меню : 1 (0x1)
Формат : MPEG Audio
Версия формата : Version 1
Профиль формата : Layer 2
Идентификатор кодека : 3
Продолжительность : 44 м.
Вид битрейта : Постоянный
Битрейт : 256 Кбит/сек
Каналы : 2 канала
Частота : 48,0 КГц
Метод сжатия : С потерями
Размер потока : 81,6 Мбайт (4%)
Язык : English
Скриншоты:
Яндекс.Метрика
Рейтинг@Mail.ru