[ Сегодня на трекере фрилич! Идет свободное скачивание без начисления Download ]

Гадкий я 2 / Despicable Me 2 (Пьер Соффин / Pierre Coffin, Крис Рено / Chris Renaud) [2013 г., США, мультфильм, фантастика, комедия, BDRip] Dub

 

Создавать темы 17-Янв-2014 23:18

Гадкий я 2Despicable Me 2-«More minions. More despicable»- Год выпуска: 2013
Страна: США-Жанр: мультфильм, комедия, приключения, семейный
Продолжительность: 01:37:58
Перевод: Профессиональный (полное дублирование)
Субтитры: нет-Режиссер: Пьер Соффин / Pierre Coffin, Крис Рено / Chris Renaud
Сценарий: Кен Даурио / Ken Daurio, Синко Пол / Cinco Paul
Продюсер: Джанет Хили / Janet Healy, Кристофер Меледандри / Christopher Meledandri
Композитор: Эйтор Перейра / Heitor Pereira, Фаррелл Уильямс / Pharrell Williams-В ролях: Стив Карелл (Gru, озвучка), Кристен Уиг (Lucy, озвучка), Бенджамин Брэтт (Eduardo, El Macho, озвучка), Миранда Косгров (Margo, озвучка), Расселл Брэнд (Dr. Nefario, озвучка), Кен Жонг (Floyd, озвучка), Стив Куган (Silas, озвучка), Элси Фишер (Agnes, озвучка), Дэна Гайер (Edith, озвучка), Мойзес Ариас (Antonio, озвучка), Назим Пэдрад (Jillian, озвучка), Кристен Шол (Shannon, озвучка)
Дублёры: Сергей Бурунов (Gru), Владимир Еремин (Eduardo, El Macho), Лиза Мартиросова (Margo), Диомид Виноградов (Floyd), Прохор Чеховской (Antonio), Иван Жарков (Arctic Lab Guard)-Описание: В то время как Грю, бывший суперзлодей, приспосабливается к семейной жизни и пытается честным трудом зарабатывать в сфере бизнеса, тайные лаборатории Арктики оказываются украденными. Анти-Злодейская лига решает, что она нуждается в помощи Грю и его новобранцев в расследовании.-kinopoisk.ru: 7.907 (25 753)
imdb.com: 7.70 (82 498)
MPAA: PG - Рекомендуется присутствие родителей-Качество: BDRip / DESPICABLE_ME_2_BD_BLUEBIRD
Контейнер: AVI
Видео: 624x336 (1.86:1), 23.976 fps, XviD build 65 ~923 kbps avg, 0.18 bit/pixel
Аудио: 48 kHz, MPEG Layer 3, 2 ch, ~128.00 kbps avg-

Сравнение

http://rutracker.org/forum/viewtopic.php?t=4565784 http://screenshotcomparison.com/comparison/45595/picture:3 + рип создан с любовью, специально для рутрекера
-

MediaInfo

General
Complete name : E:\Рипы\Despicable.Me.2.2013.BDRip.Dub.All.Films.avi
Format : AVI
Format/Info : Audio Video Interleave
File size : 743 MiB
Duration : 1h 37mn
Overall bit rate : 1 061 Kbps
Movie name : Despicable.Me.2.2013.BDRip.Dub.All.Films
Director : DIABLO93
Genre : Family
Writing application : VirtualDubMod 1.5.10.3 | www.virtualdub-fr.org || (build 2550/release)
Original source form/Name : Movie
Copyright : Rutracker.org (R.G. All Films)
Video
ID : 0
Format : MPEG-4 Visual
Format profile : Advanced [email protected]
Format settings, BVOP : 2
Format settings, QPel : No
Format settings, GMC : No warppoints
Format settings, Matrix : Custom
Codec ID : XVID
Codec ID/Hint : XviD
Duration : 1h 37mn
Bit rate : 923 Kbps
Width : 624 pixels
Height : 336 pixels
Display aspect ratio : 1.85:1
Frame rate : 23.976 fps
Color space : YUV
Chroma subsampling : 4:2:0
Bit depth : 8 bits
Scan type : Progressive
Compression mode : Lossy
Bits/(Pixel*Frame) : 0.184
Stream size : 647 MiB (87%)
Writing library : XviD 65
Audio
ID : 1
Format : MPEG Audio
Format version : Version 1
Format profile : Layer 3
Mode : Joint stereo
Mode extension : MS Stereo
Codec ID : 55
Codec ID/Hint : MP3
Duration : 1h 37mn
Bit rate mode : Constant
Bit rate : 128 Kbps
Channel(s) : 2 channels
Sampling rate : 48.0 KHz
Compression mode : Lossy
Stream size : 89.7 MiB (12%)
Alignment : Aligned on interleaves
Interleave, duration : 42 ms (1.00 video frame)
Interleave, preload duration : 504 ms
[/code]
-Скачать

Скриншоты

Яндекс.Метрика
Рейтинг@Mail.ru