[ Сегодня на трекере фрилич! Идет свободное скачивание без начисления Download ]

Любовь не картошка (2013) HDTV [1080i] (серии 1-8 из 8)

 

Создавать темы 17-Янв-2014 22:37

-Любовь не картошка (2013) HDTV [1080i] (серии 1-8 из 8)- Русское название: Любовь не картошка
Производство: "Всемирные Русские Студии", Россия
Год выпуска: 2013
Жанр: Мелодрама, Комедия
Режиссер: Валерий Усков
Актеры: Валентина Теличкина, Таисия Вилкова, Марина Яковлева, Александр Вдовин, Ася Дубровская, Александр Михайлов, Виктор Хориняк, Павел Мисаилов, Дмитрий Подадаев
Описание фильма:
Паня всю жизнь прожила в деревне. Муж умер, детей не было. Из родственников только племянник: живет в городе с семьей и уговаривает Паню к ним перебраться. Все для того, чтобы дом Пани продать, а на вырученные деньги купить машину. Устала Паня отбиваться и в шутку брякнула: «Не могу переехать, замуж выхожу». Теперь нужно Пане настоящего жениха найти, иначе не отстанет племянничек. Подходящих мужчин в округе нет. Подруга Пани, соседка Лизка, сватает Паню за дачника-художника, который недавно переехал в деревню. Паня решила предложить ему брак по расчету — два мешка картошки, если женится. А у Лизки у самой дочь на выданье, Татьяна. Та и вовсе мимо деревенских женихов смотрит — олигарха ждет на белом мерседесе. И вся деревня гадает — сможет ли Лизка выдать замуж и Паню, и Таню?
Деревня, где проходят съемки телефильма, и правда заслуживает, чтобы прожить в ней всю жизнь. Утешево — одна из 30 деревень, которые осмотрели создатели фильма, прежде чем выбрать место для съемок. Она самая красивая, как говорит художник-постановщик, дома настоящие, не испорченные «сайдингом», дачников нет, церковь на холме… Местные жители утверждают — хорошее место, сильное, кто-то ангелов здесь видел, а кто-то рассказывает, что и яблоки тут вверх падают, потому что притяжение неба здесь особенное: не даром Циолковский в Калуге космос изучал. И все тучи Утешево обходят стороной, дожди в Калуге проливаются, что для съемочного процесса очень важно.

Дата российской премьеры: 23.12.2013
Продолжительность: 8 x ~ 00:44:00
Качество видео: HDTV
Видеокодек: AVC/H.264
Битрейт видео: ~7800 Kbps
Размер кадра: 1920x1080
Аудиокодек: AC3
Битрейт аудио: 2 ch, 192 Kbps

MediaInfo:

Общее
Уникальный идентификатор : 221125784626488038303966597023345498773 (0xA65B46EA0CEF3ED6892CB0E17C915A95)
Полное имя : E:\DOWNLOADS\Любовь не картошка (2013) HDTV 1080\Любовь не картошка - 01 серия.mkv
Формат : Matroska
Версия формата : Version 2
Размер файла : 2,52 Гбайт
Продолжительность : 43 м.
Общий поток : 8222 Кбит/сек
Дата кодирования : UTC 2014-01-17 19:49:57
Программа кодирования : mkvmerge v6.1.0 ('Old Devil') built on Mar 4 2013 09:10:42
Библиотека кодирования : libebml v1.3.0 + libmatroska v1.4.0
Видео
Идентификатор : 1
Формат : AVC
Формат/Информация : Advanced Video Codec
Профиль формата : [url=mailto:[email protected]][email protected][/url]
Параметр CABAC формата : Да
Параметр ReFrames формата : 3 кадра
Идентификатор кодека : V_MPEG4/ISO/AVC
Продолжительность : 43 м.
Битрейт : 7866 Кбит/сек
Ширина : 1920 пикселей
Высота : 1080 пикселей
Соотношение сторон : 16:9
Режим частоты кадров : Постоянный
Частота кадров : 25,000 кадров/сек
Стандарт вещания : Component
Цветовое пространство : YUV
Субдискретизация насыщенности : 4:2:0
Битовая глубина : 8 бит
Тип развёртки : Чересстрочная
Порядок развёртки : Верхнее поле первое
Бит/(Пиксели*Кадры) : 0.152
Размер потока : 2,41 Гбайт (96%)
Default : Да
Forced : Нет
Основные цвета : BT.709
Характеристики трансфера : BT.709
Коэффициенты матрицы : BT.709
Аудио
Идентификатор : 2
Формат : AC-3
Формат/Информация : Audio Coding 3
Расширение режима : CM (complete main)
Параметр Endianness формата : Big
Идентификатор кодека : A_AC3
Продолжительность : 43 м.
Вид битрейта : Постоянный
Битрейт : 192 Кбит/сек
Каналы : 2 канала
Расположение каналов : Front: L R
Частота : 48,0 КГц
Битовая глубина : 16 бит
Метод сжатия : С потерями
Размер потока : 60,2 Мбайт (2%)
Default : Да
Forced : Нет
Скриншоты:
Яндекс.Метрика
Рейтинг@Mail.ru