[ Сегодня на трекере фрилич! Идет свободное скачивание без начисления Download ]

Бесплатные образцы / Free Samples (Джей Гэммилл / Jay Gammill) [2012 г., драма, комедия, HDRip] MVO + Original (Eng)

 

Создавать темы 17-Янв-2014 16:29

-Бесплатные образцы / Free Samples-«Ever have one of those years?»- Производство: США, Foster Entertainment
Год выпуска: 2012 г.
Жанр: драма, комедия
Продолжительность: 01:19:41
Мировая премьера: 20 апреля 2012
Перевод: Профессиональный (многоголосый, закадровый)
Оригинальный аудиопоток: английский
Режиссер: Джей Гэммилл / Jay Gammill-В ролях: Джесс Вейкслер, Джесси Айзенберг, Джейсон Риттер, Хэлли Фейффер, Типпи Хедрен, Кейр О’Доннелл, Джоселин Донахью, Уитни Эйбл, Эбен Костбар, Джордан Дэвис-Описание: Главная героиня отчислена из юридической школы и вынуждена раздавать бесплатные образцы мороженого, чтобы иметь средства к существованию. Работа и так повергает ее в депрессию, а тут еще какой-то молодой человек начинает оказывать недвусмысленные знаки внимания.-
Качество видео: HDRip
Контейнер: AVI
Видео кодек: XviD
Аудио кодек: AC3
Видео: 720x304 (2.37:1), 24 fps, XviD build 50 ~1822 kbps avg, 0.35 bit/pixel
Аудио: 48 kHz, AC3 Dolby Digital, 2/0 (L,R) ch, ~224.00 kbps avg - Russian
Аудио #2: 48 kHz, AC3 Dolby Digital, 3/2 (L,C,R,l,r) + LFE ch, ~384.00 kbps avg - English
Cубтитры: отсутствуют

Media Info

General
Complete name : ..\Free.Samples.2012.HDRip_[pirat.ca].avi
Format : AVI
Format/Info : Audio Video Interleave
File size : 1.36 GiB
Duration : 1h 19mn
Overall bit rate : 2 446 Kbps
Writing application : VirtualDubMod 1.5.10.3 | www.virtualdub-fr.org || (build 2550/release)
Writing library : VirtualDubMod build 2550/release
Video
ID : 0
Format : MPEG-4 Visual
Format profile : Advanced [email protected]
Format settings, BVOP : 2
Format settings, QPel : No
Format settings, GMC : No warppoints
Format settings, Matrix : Default (MPEG)
Codec ID : XVID
Codec ID/Hint : XviD
Duration : 1h 19mn
Bit rate : 1 824 Kbps
Width : 720 pixels
Height : 304 pixels
Display aspect ratio : 2.35:1
Frame rate : 24.000 fps
Color space : YUV
Chroma subsampling : 4:2:0
Bit depth : 8 bits
Scan type : Progressive
Compression mode : Lossy
Bits/(Pixel*Frame) : 0.347
Stream size : 1.02 GiB (75%)
Writing library : XviD 1.2.1 (UTC 2008-12-04)
Audio #1
ID : 1
Format : AC-3
Format/Info : Audio Coding 3
Mode extension : CM (complete main)
Format settings, Endianness : Big
Codec ID : 2000
Duration : 1h 19mn
Bit rate mode : Constant
Bit rate : 224 Kbps
Channel count : 2 channels
Channel positions : Front: L R
Sampling rate : 48.0 KHz
Bit depth : 16 bits
Compression mode : Lossy
Stream size : 128 MiB (9%)
Alignment : Split accross interleaves
Interleave, duration : 42 ms (1.00 video frame)
Interleave, preload duration : 500 ms
Audio #2
ID : 2
Format : AC-3
Format/Info : Audio Coding 3
Mode extension : CM (complete main)
Format settings, Endianness : Big
Codec ID : 2000
Duration : 1h 19mn
Bit rate mode : Constant
Bit rate : 384 Kbps
Channel count : 6 channels
Channel positions : Front: L C R, Side: L R, LFE
Sampling rate : 48.0 KHz
Bit depth : 16 bits
Compression mode : Lossy
Stream size : 219 MiB (16%)
Alignment : Split accross interleaves
Interleave, duration : 42 ms (1.00 video frame)
Interleave, preload duration : 500 ms

Скриншот c названием фильма

Скриншоты

-
Яндекс.Метрика
Рейтинг@Mail.ru