Уничтожение / Raze (Джош С. Уоллер / Josh C. Waller) [2013 г., ужасы, боевик, HDRip] DVO

 

Создавать темы 17-Янв-2014 02:11

-Уничтожение / Raze-- Производство: США
Год выпуска: 2013 г.
Жанр: ужасы, боевик
Продолжительность: 01:32:07
Мировая премьера: 21 апреля 2013
Перевод: Любительский (двухголосый, закадровый) [den904 & DeadSno]
Режиссер: Джош С. Уоллер / Josh C. Waller-В ролях: Зои Белл, Рэйчел Николс, Трейси Томс, Шерилин Фенн, Даг Джонс, Брюс Томас, Бэйли Энн Бордерс, Ребекка Маршалл, Эдриэнн Уилкинсон, Али Андерсон-Описание: Сабрину и ещё около пятидесяти девушек похищают и запирают в бункере. Ради удовольствия богатых мира сего, они должны биться между собой голыми руками на смерть, как раньше это делали гладиаторы в колизеях. Сабрину заставляют биться ради её дочери, если она откажется её дочь умрёт. В этой тюрьме есть только один закон «бейся или умри».-
Качество видео: HDRip
Контейнер: AVI
Видео кодек: XviD
Аудио кодек: AC3
Видео: MPEG4, XviD, 720x304 (2.35:1), 23.976 fps, 1 792 Kbps (0.341 bit/pixel)
Аудио: русский, двухголосый закадровый, AC3, 48.0 KHz, 2 ch, 192 Kbps, CBR
Cубтитры: отсутствуют

Media Info

General
Complete name : E:\КИНО\ИНОСТРАННЫЕ\HDTV-Rip\Raze.avi
Format : AVI
Format/Info : Audio Video Interleave
File size : 1.28 GiB
Duration : 1h 32mn
Overall bit rate : 1 993 Kbps
Writing application : VirtualDubModRus 1.5.10.2 (build 2542/release)
Writing library : VirtualDubMod build 2542/release
Video
ID : 0
Format : MPEG-4 Visual
Format profile : Streaming [email protected]
Format settings, BVOP : Yes
Format settings, QPel : No
Format settings, GMC : No warppoints
Format settings, Matrix : Default (H.263)
Muxing mode : Packed bitstream
Codec ID : XVID
Codec ID/Hint : XviD
Duration : 1h 32mn
Bit rate : 1 792 Kbps
Width : 720 pixels
Height : 304 pixels
Display aspect ratio : 2.35
Frame rate : 23.976 fps
Resolution : 24 bits
Colorimetry : 4:2:0
Scan type : Progressive
Bits/(Pixel*Frame) : 0.341
Stream size : 1.15 GiB (90%)
Writing library : XviD 64
Audio
ID : 1
Format : AC-3
Format/Info : Audio Coding 3
Codec ID : 2000
Duration : 1h 32mn
Bit rate mode : Constant
Bit rate : 192 Kbps
Channel(s) : 2 channels
Channel positions : L R
Sampling rate : 48.0 KHz
Stream size : 127 MiB (10%)
Alignment : Split accross interleaves
Interleave, duration : 42 ms (1.00 video frame)
Interleave, preload duration : 500 ms

Скриншот c названием фильма

Скриншоты

Яндекс.Метрика
Рейтинг@Mail.ru