Челюсти 3D / Shark Night 3D (Дэвид Р. Эллис) [2011, ужасы, триллер, BDRip] от Youtracker

 

Создавать темы 07-Окт-2013 17:38

Год выпуска: 2011
Страна: США
Студия: Incentive Filmed Entertainment, Next Films, Sierra Pictures (III), Silverwood Films
Жанр: ужасы, триллер
Продолжительность: 01:30:31
Перевод: Профессиональный (дублированный)
Субтитры: нет
Оригинальная аудиодорожка: нет
Режиссер: Дэвид Р. Эллис / David R. Ellis
В ролях:
Сара Пэкстон, Дастин Миллиган, Крис Кармак, Кэтрин МакФи, Донал Лог, Крис Зилка, Алисса Диаз, Джоэль Мур, Джошуа Леонард...
Описание:
Сюжет фильма вращается вокруг группы подростков, учащихся колледжа, которые проводят свои выходные на воде в большом озере. Вскоре они обнаруживают, что зубастая опасность скрывается под ними, в непроглядной глубине...- -Исходник: BDRemux
Тип релиза: BDRip
Контейнер: AVI
Видео: 688x368 (1,87:1), 23.976 fps, XviD ~ 1010 kbps avg, 0.166 bit/pixel
Аудио: 48 kHz, MP3, 2 ch, 128.00 kbps

MediaInfo

Общее
Полное имя : Chelyusti.2011Chelyusti.2011.D.BDRip.avi
Формат : AVI
Формат/Информация : Audio Video Interleave
Размер файла : 743 Мбайт
Продолжительность : 1 ч. 30 м.
Общий поток : 1147 Кбит/сек
Программа кодирования : VirtualDubMod 1.5.10.3 | www.virtualdub-fr.org || (build 2550/release)
Библиотека кодирования : VirtualDubMod build 2550/release
Видео
Идентификатор : 0
Формат : MPEG-4 Visual
Профиль формата : Advanced [email protected]
Параметр BVOP формата : 1
Параметр QPel формата : Нет
Параметр GMC формата : Без точки перехода
Параметр матрицы формата : Выборочная
Идентификатор кодека : XVID
Идентификатор кодека/Подсказка : XviD
Продолжительность : 1 ч. 30 м.
Битрейт : 1010 Кбит/сек
Ширина : 688 пикселей
Высота : 368 пикселей
Соотношение сторон : 1,870
Частота кадров : 23,976 кадра/сек
Цветовое пространство : YUV
Субдискретизация насыщенности : 4:2:0
Битовая глубина : 8 бит
Тип развёртки : Прогрессивная
Метод сжатия : С потерями
Бит/(Пиксели*Кадры) : 0.166
Размер потока : 654 Мбайт (88%)
Библиотека кодирования : XviD 64
Аудио
Идентификатор : 1
Формат : MPEG Audio
Версия формата : Version 1
Профиль формата : Layer 3
Идентификатор кодека : 55
Идентификатор кодека/Подсказка : MP3
Продолжительность : 1 ч. 30 м.
Вид битрейта : Постоянный
Битрейт : 128 Кбит/сек
Каналы : 2 канала
Частота : 48,0 КГц
Метод сжатия : С потерями
Размер потока : 82,9 Мбайт (11%)
Выравнивание : Соединение по промежуткам
Продолжительность промежутка : 42 мс. (1,00 видеокадр)
Время предзагрузки промежутка : 504 мс.
Библиотека кодирования : LAME3.99.1

Скриншоты фильма


_________________
Подпись отключена за нарушение правил форума

Создавать темы 07-Окт-2013 19:21 (спустя 1 час 43 минуты)

Топик был перенесен из форума •Новости в сети: в форум Зарубежные Фильмы (HD*Rip/LQ, DVDRip, SATRip, VHSRip)
DDGroup
Яндекс.Метрика
Рейтинг@Mail.ru