(Pop, Chanson) Patricia Kaas - Mademoiselle chante... - 1988, FLAC (image+.cue), lossless

 

Создавать темы 15-Янв-2014 23:25

--Patricia Kaas - Mademoiselle chante... (France, 1st Press)-- Жанр: Pop, Chanson
Страна-производитель диска: France
Год издания диска: 1988
Издатель (лейбл): Polydor
Номер по каталогу: 837 356-2
Страна: France
Аудиокодек: FLAC (*.flac)
Тип рипа: image+.cue
Битрейт аудио: lossless
Продолжительность: 00:34:32
Наличие сканов в содержимом раздачи: да
Треклист:


1. Mon Mec A Moi 4:16
2. Vénus Des Abribus 3:55
3. D'Allemagne 4:19
4. Des Mensonges En Musique 4:15
5. Un Dernier Blues 1:35
6. Quand Jimmy Dit 3:40
7. Souvenirs De L'Est 2:54
8. Elle Voulait Jouer Cabaret 4:04
9. Mademoiselle Chante Le Blues 3:45
10.Chanson D'Amour Pas Finie 1:37

Artwork – Alain Frappier
Guitar – José Souc
Photography By – Gilles Cappé
Producer – Bernard Estardy, Joël Cartigny (tracks: 9)

Отчёт EAC

Exact Audio Copy V0.99 prebeta 5 from 4. May 2009
Отчёт EAC об извлечении, выполненном 23. сентября 2011, 23:44
Patricia Kaas / Mademoiselle chante...
Дисковод: PLEXTOR CD-R PREMIUM2 Adapter: 0 ID: 0
Режим чтения : Достоверность
Использование точного потока : Да
Отключение кэша аудио : Да
Использование указателей C2 : Нет
Коррекция смещения при чтении : 30
Способность читать области Lead-in и Lead-out : Нет
Заполнение пропущенных сэмплов тишиной : Да
Удаление блоков с тишиной в начале и конце : Нет
При вычислениях CRC использовались нулевые сэмплы : Да
Интерфейс : Встроенный Win32-интерфейс для Win NT/2000
Выходной формат : Внутренние WAV-операции
Формат сэмплов : 44.100 Гц; 16 бит; стерео
TOC извлечённого CD
Трек | Старт | Длительность | Начальный сектор | Конечный сектор
---------------------------------------------------------------------
1 | 0:00.33 | 4:14.67 | 33 | 19149
2 | 4:15.25 | 3:51.63 | 19150 | 36537
3 | 8:07.13 | 4:25.07 | 36538 | 56419
4 | 12:32.20 | 4:19.10 | 56420 | 75854
5 | 16:51.30 | 1:36.03 | 75855 | 83057
6 | 18:27.33 | 3:42.10 | 83058 | 99717
7 | 22:09.43 | 2:55.17 | 99718 | 112859
8 | 25:04.60 | 4:02.13 | 112860 | 131022
9 | 29:06.73 | 3:48.57 | 131023 | 148179
10 | 32:55.55 | 1:37.00 | 148180 | 155454
Характеристики диапазона извлечения и сообщения об ошибках
Выбранный диапазон
Имя файла F:\Patricia Kaas - Mademoiselle Chante ... (Polydor 837 356-2)\Patricia Kaas - Mademoiselle chante....wav
Пиковый уровень 92.3 %
Качество диапазона 99.9 %
CRC теста 5BB1A627
CRC копии 5BB1A627
Копирование... OK
Ошибок не произошло
AccurateRip: сводка
Трек 1 точное извлечение (доверие 7) [C209742A]
Трек 2 точное извлечение (доверие 9) [A506FFD9]
Трек 3 точное извлечение (доверие 9) [840EF831]
Трек 4 точное извлечение (доверие 9) [0D142301]
Трек 5 точное извлечение (доверие 10) [E05D2052]
Трек 6 точное извлечение (доверие 10) [9C51152F]
Трек 7 точное извлечение (доверие 9) [DE686871]
Трек 8 точное извлечение (доверие 9) [D2ADCD2F]
Трек 9 точное извлечение (доверие 9) [C8A6C1B7]
Трек 10 точное извлечение (доверие 8) [BCF1A306]
Все треки извлечены точно
Конец отчёта
Яндекс.Метрика
Рейтинг@Mail.ru