(PopMusic) Toto Cutugno - Greatest Hits - 2002, FLAC (image + .cue), lossless

 

Создавать темы 15-Янв-2014 23:20

--Toto Cutugno - Greatest Hits-- Страна: Italy
Жанр: PopMusic
Год выпуска: 2002
Формат: FLAC (image + .cue)
Битрейт аудио: lossless
Продолжительность: 1:13:11
Треклист:

01.Figli (4:10)
02.Donna Donna Mia (3:01)
03.Flash (3:16)
04.Insieme 1992 (4:28)
05.Voglio L'Anima (4:03)
06.Mi Piacerebbe (4:36)
07.Solo Noi (4:04)
08.L'Italiano (3:57)
09.Soli (4:04)
10.Voglio Andare A Vivere In Campagna (4:26)
11.Gli Amori (4:19)
12.Il Sognatore (4:29)
13.Africa (3:16)
14.Ario (3:43)
15.Le Mamme (4:11)
16.Serenata (3:53)
17.Sinfonia (4:38)
18.Canzone D'Amore (4:36)

Back

Отчёт EAC

Exact Audio Copy V0.99 prebeta 3 from 28. July 2007
Отчёт EAC об извлечении, выполненном 24. января 2008, 5:29
Toto Cutugno / Greatest Hits
Дисковод: PLEXTOR DVDR PX-716AL Adapter: 2 ID: 0
Режим чтения : Достоверность
Использование точного потока : Да
Отключение кэша аудио : Да
Использование указателей C2 : Нет
Коррекция смещения при чтении : 30
Способность читать области Lead-in и Lead-out : Нет
Заполнение пропущенных сэмплов тишиной : Да
Удаление блоков с тишиной в начале и конце : Нет
При вычислениях CRC использовались нулевые сэмплы : Нет
Интерфейс : Встроенный Win32-интерфейс для Win NT/2000
Выходной формат : Внутренние WAV-операции
Формат сэмплов : 44.100 Гц; 16 бит; стерео
TOC извлечённого CD
Трек | Старт | Длительность | Начальный сектор | Конечный сектор
---------------------------------------------------------------------
1 | 0:00.00 | 4:10.30 | 0 | 18779
2 | 4:10.30 | 3:01.35 | 18780 | 32389
3 | 7:11.65 | 3:16.09 | 32390 | 47098
4 | 10:27.74 | 4:28.10 | 47099 | 67208
5 | 14:56.09 | 4:03.08 | 67209 | 85441
6 | 18:59.17 | 4:36.01 | 85442 | 106142
7 | 23:35.18 | 4:04.13 | 106143 | 124455
8 | 27:39.31 | 3:56.46 | 124456 | 142201
9 | 31:36.02 | 4:03.40 | 142202 | 160466
10 | 35:39.42 | 4:26.31 | 160467 | 180447
11 | 40:05.73 | 4:18.61 | 180448 | 199858
12 | 44:24.59 | 4:29.28 | 199859 | 220061
13 | 48:54.12 | 3:16.11 | 220062 | 234772
14 | 52:10.23 | 3:43.05 | 234773 | 251502
15 | 55:53.28 | 4:10.71 | 251503 | 270323
16 | 60:04.24 | 3:53.35 | 270324 | 287833
17 | 63:57.59 | 4:38.37 | 287834 | 308720
18 | 68:36.21 | 4:35.40 | 308721 | 329385
Характеристики диапазона извлечения и сообщения об ошибках
Выбранный диапазон
Имя файла Z:\Temp\Toto Cutugno - Greatest Hits\Toto Cutugno - Greatest Hits.wav
Пиковый уровень 100.0 %
Качество диапазона 100.0 %
CRC копии 7AF6078D
Копирование... OK
Ошибок не произошло
Конец отчёта
Яндекс.Метрика
Рейтинг@Mail.ru