По признакам совместимости / Jewtopia (Брайан Фогель / Bryan Fogel) [2012 г., мелодрама, комедия, WEB-DLRip] Dub

 

Создавать темы 15-Янв-2014 15:52

--По признакам совместимости / Jewtopia--«Хочешь жениться - спроси меня как»-- Производство: США / Ministry of Content, Oops Doughnuts Productions, Tooley Productions
Год выпуска: 2012 г.
Жанр: мелодрама, комедия
Продолжительность: 01:28:44--Мировая премьера: 26 апреля 2012
Премьера (РФ): 7 ноября 2013, «Люксор»
Релиз на DVD: 16 декабря 2013, «Новый Диск»--Перевод: Профессиональный (полное дублирование)--Режиссер: Брайан Фогель / Bryan Fogel--В ролях: Дженнифер Лав Хьюитт, Иван Сергей, Рита Уилсон, Джоэль Мур, Том Арнольд, Джэми-Линн Сиглер, Джон Ловиц, Кристин Лэйкин, Петер Стормаре, Бри Тёрнер--Описание: Крис и Адам — друзья детства, но совсем не похожи друг на друга. Адам — скромный и послушный мальчик из почтенной еврейской семьи, Крис — из семьи военных, привыкший развлекаться на всю катушку втайне от своих суровых родителей. Адам — вот-вот женится на Ханне, которую обожает вся его семья. Крис — безнадежно влюблён в Элисон, которая и слышать о нём не желает. Последовав совету Адама, Крис выдаёт себя за иудея, чтобы добиться свидания с Элисон. Что будет, когда она узнает правду? Традиции рушатся, царит полнейший хаос, и друзья начинают понимать, что жизнь может быть вовсе не такой, какой они привыкли её видеть, а чтобы дотянуться до счастья, нужно приложить немало усилий.-- --Качество видео: WEB-DLRip
Контейнер: AVI
Видео кодек: XviD
Аудио кодек: AC3
Видео: 720x384 (1.88:1), 23.976 fps, XviD build 50 ~1959 kbps avg, 0.29 bit/pixel
Аудио: 48 kHz, AC3 Dolby Digital, 3/2 (L,C,R,l,r) + LFE ch, ~384 kbps
Cубтитры: отсутствуют
-

Media Info

Общее
Полное имя : H:\Torrent2\Po.priznakam.sovmestimosty.2012.D.WEBDLRip.1.46Gb_[pirat.ca].avi
Формат : AVI
Формат/Информация : Audio Video Interleave
Размер файла : 1,46 Гбайт
Продолжительность : 1 ч. 28 м.
Общий поток : 2353 Кбит/сек
Программа кодирования : VirtualDubMod 1.5.10.2 (build 2540/release)
Библиотека кодирования : VirtualDubMod build 2540/release
Видео
Идентификатор : 0
Формат : MPEG-4 Visual
Профиль формата : Advanced [email protected]
Параметр BVOP формата : 2
Параметр QPel формата : Нет
Параметр GMC формата : Без точки перехода
Параметр матрицы формата : Default (MPEG)
Идентификатор кодека : XVID
Идентификатор кодека/Подсказка : XviD
Продолжительность : 1 ч. 28 м.
Битрейт : 1960 Кбит/сек
Ширина : 720 пикселей
Высота : 384 пикселя
Соотношение сторон : 1,85:1
Частота кадров : 23,976 кадра/сек
Цветовое пространство : YUV
Субдискретизация насыщенности : 4:2:0
Битовая глубина : 8 бит
Тип развёртки : Прогрессивная
Метод сжатия : С потерями
Бит/(Пиксели*Кадры) : 0.296
Размер потока : 1,21 Гбайт (83%)
Библиотека кодирования : XviD 1.2.1 (UTC 2008-12-04)
Аудио
Идентификатор : 1
Формат : AC-3
Формат/Информация : Audio Coding 3
Расширение режима : CM (complete main)
Параметр Endianness формата : Big
Идентификатор кодека : 2000
Продолжительность : 1 ч. 28 м.
Вид битрейта : Постоянный
Битрейт : 384 Кбит/сек
Каналы : 6 каналов
Расположение каналов : Front: L C R, Side: L R, LFE
Частота : 48,0 КГц
Битовая глубина : 16 бит
Метод сжатия : С потерями
Размер потока : 244 Мбайт (16%)
Выравнивание : Разделение по промежуткам
Продолжительность промежутка : 42 мс. (1,00 видеокадр)
Время предзагрузки промежутка : 500 мс.

Скриншоты

Трейлер
Яндекс.Метрика
Рейтинг@Mail.ru