Славный малый (Борис Барнет) [1943, Военный, Драма, DVDRip]

 

Создавать темы 23-Фев-2017 18:02

- Славный малый - Производство: Мосфильм, ЦОКС
Жанр: Военный, Драма
Режиссер: Борис Барнет
Актеры: Ольга Якунина, Елена Сипавина, Виктор Добровольский, Николай Боголюбов, Л. Ткачев, Николай Степанов, Евгений Григорьев
Описание:
История французского летчика, сбитого фашистами и попавшего в партизанский отряд на территории Новгородской области…

Возраст: 0+ (для любой зрительской аудитории)
Продолжительность: 01:04:52
Качество видео: DVDRip
Видео: DivX 5, 672x512, ~2213 kbps
Аудио: AC3, 2 ch, 192 kbps

МИ

Общее
Полное имя                               : Z:\Славный малый (1943) DVDRip.avi
Формат                                   : AVI
Формат/Информация                        : Audio Video Interleave
Размер файла                             : 1,09 Гбайт
Продолжительность                        : 1 ч. 4 м.
Общий поток                              : 2415 Кбит/сек
Программа кодирования                    : VirtualDubMod 1.5.10.2 (build 2540/release)
Библиотека кодирования                   : VirtualDubMod build 2540/release
Видео
Идентификатор                            : 0
Формат                                   : MPEG-4 Visual
Параметр BVOP формата                    : 1
Параметр QPel формата                    : Нет
Параметр GMC формата                     : Без точки перехода
Параметр матрицы формата                 : Default (H.263)
Режим смешивания                         : Сжатый битовый поток
Идентификатор кодека                     : DX50
Идентификатор кодека/Подсказка           : DivX 5
Продолжительность                        : 1 ч. 4 м.
Битрейт                                  : 2213 Кбит/сек
Ширина                                   : 672 пикселя
Высота                                   : 512 пикселей
Соотношение сторон                       : 4:3
Частота кадров                           : 25,000 кадров/сек
Цветовое пространство                    : YUV
Субдискретизация насыщенности            : 4:2:0
Битовая глубина                          : 8 бит
Тип развёртки                            : Прогрессивная
Метод сжатия                             : С потерями
Бит/(Пиксели*Кадры)                      : 0.257
Размер потока                            : 1,00 Гбайт (92%)
Библиотека кодирования                   : DivX 6.8.5 (UTC 2009-08-20)
Аудио
Идентификатор                            : 1
Формат                                   : AC-3
Формат/Информация                        : Audio Coding 3
Расширение режима                        : CM (complete main)
Параметр Endianness формата              : Big
Идентификатор кодека                     : 2000
Продолжительность                        : 1 ч. 4 м.
Вид битрейта                             : Постоянный
Битрейт                                  : 192 Кбит/сек
Каналы                                   : 2 канала
Расположение каналов                     : Front: L R
Частота                                  : 48,0 КГц
Частота кадров                           : 31,250 кадров/сек (1536 spf)
Метод сжатия                             : С потерями
Задержка видео                           : 16 мс.
Размер потока                            : 89,1 Мбайт (8%)
Выравнивание                             : Разделение по промежуткам
Продолжительность промежутка             : 40  мс. (1,00 видеокадр)
Время предзагрузки промежутка            : 500  мс.
Скриншоты:

ещё скриншотов:

Рейтинг@Mail.ru