Брызги шампанского (Станислав Говорухин) [1988, Драма, военный, экранизация, DVDRip]

 

Создавать темы 23-Фев-2017 18:00

-Брызги шампанского - Производство: СССР / Мосфильм
Жанр: Драма, военный, экранизация
Режиссер: Станислав Говорухин
Актеры: Алексей Бурыкин, Антонина Венедиктова, Татьяна Догилева, Фёдор Одиноков, Наталья Щукина, Олег Меньшиков, Людмила Давыдова (I), Владимир Большов, Людмила Крылова, Лев Борисов ...
Описание:
В основе картины повесть писателя-фронтовика Вячеслава Кондратьева "Отпуск по ранению".
Летом 42-го герой после ранения Володя на месяц попадает в столицу. Ему бы радоваться — однако юный лейтенант не в силах свыкнуться с обыденной московской жизнью. Он отказывается от предложения продолжить службу без риска для жизни: это значило бы предать боевых товарищей…


Возраст: 6+ (зрителям, достигшим 6 лет)
Продолжительность: 01:33:59
Качество видео: DVDRip
Видео: MPEG4, XviD, 720x416 (16:9), 25.000 fps, 2 014 Kbps (0.269 bit/pixel)
Аудио: AC-3, 48.0 KHz, 2 ch, 192 Kbps, CBR

МИ

Общее
Полное имя                               : C:\Брызги шампанского\Bryzgi shampanskogo 1988 DVDRip.avi
Формат                                   : AVI
Формат/Информация                        : Audio Video Interleave
Размер файла                             : 1,45 Гбайт
Продолжительность                        : 1 ч. 33 м.
Общий поток                              : 2216 Кбит/сек
Программа кодирования                    : FairUse Wizard - [url=http://fairusewizard.com]http://fairusewizard.com[/url]
Библиотека кодирования                   : The best and REALLY easy backup tool
Видео
Идентификатор                            : 0
Формат                                   : MPEG-4 Visual
Профиль формата                          : Advanced [email protected]
Параметр BVOP формата                    : 1
Параметр QPel формата                    : Нет
Параметр GMC формата                     : Без точки перехода
Параметр матрицы формата                 : Default (MPEG)
Режим смешивания                         : Сжатый битовый поток
Идентификатор кодека                     : XVID
Идентификатор кодека/Подсказка           : XviD
Продолжительность                        : 1 ч. 33 м.
Битрейт                                  : 2014 Кбит/сек
Ширина                                   : 720 пикселей
Высота                                   : 416 пикселей
Соотношение сторон                       : 1,731
Частота кадров                           : 25,000 кадров/сек
Цветовое пространство                    : YUV
Субдискретизация насыщенности            : 4:2:0
Битовая глубина                          : 8 бит
Тип развёртки                            : Прогрессивная
Метод сжатия                             : С потерями
Бит/(Пиксели*Кадры)                      : 0.269
Размер потока                            : 1,32 Гбайт (91%)
Библиотека кодирования                   : XviD 1.2.0.dev47 (UTC 2006-11-01)
Аудио
Идентификатор                            : 1
Формат                                   : AC-3
Формат/Информация                        : Audio Coding 3
Расширение режима                        : CM (complete main)
Параметр Endianness формата              : Big
Идентификатор кодека                     : 2000
Продолжительность                        : 1 ч. 33 м.
Вид битрейта                             : Постоянный
Битрейт                                  : 192 Кбит/сек
Каналы                                   : 2 канала
Расположение каналов                     : Front: L R
Частота                                  : 48,0 КГц
Частота кадров                           : 31,250 кадров/сек (1536 spf)
Битовая глубина                          : 16 бит
Метод сжатия                             : С потерями
Размер потока                            : 129 Мбайт (9%)
Выравнивание                             : Разделение по промежуткам
Продолжительность промежутка             : 40  мс. (1,00 видеокадр)
Время предзагрузки промежутка            : 500  мс.
Скриншоты:
Рейтинг@Mail.ru