В огне брода нет (Глеб Панфилов) [1967, Драма, военный, DVDRip]

 

Создавать темы 23-Фев-2017 07:57

-В огне брода нет - Производство: СССР / Ленфильм
Жанр: Драма, военный
Режиссер: Глеб Панфилов
Актеры: Инна Чурикова, Анатолий Солоницын, Михаил Глузский, Михаил Кононов, Майя Булгакова, Евгений Лебедев, Анатолий Маренич, Владимир Кашпур, Вадим Бероев, Михаил Кокшенов ...
Описание: В санитарном поезде, вывозящем раненых с фронтов гражданской войны, работает медсестрой комсомолка Таня Теткина. Совсем юная, застенчивая девушка искренне и самоотверженно предана своему делу. Она далеко не все еще понимает из происходящего вокруг, многое лишь смутно ощущает, пытаясь выразить это своими рисунками и отношением к близким людям, которых она находит и теряет в эти трудные дни.


Возраст: 0+ (для любой зрительской аудитории)
Продолжительность: 01:29:31
Качество видео: DVDRip-AVC
Видео: AVC, [email protected] (2.35:1), 25.000 fps, 2 143 Kbps (0.272 bit/pixel)
Аудио: AC-3, 48.0 KHz, 2 ch, 192 Kbps, CBR

МИ

Общее
Уникальный идентификатор                 : 186738806428075837972288276277049823658 (0x8C7C95FE0F5508979E46873B1E8A11AA)
Полное имя                               : C:\В огне брода нет\V ogne broda net 1967 DVDRip-AVC.mkv
Формат                                   : Matroska
Версия формата                           : Version 4 / Version 2
Размер файла                             : 1,46 Гбайт
Продолжительность                        : 1 ч. 29 м.
Общий поток                              : 2337 Кбит/сек
Дата кодирования                         : UTC 2013-03-28 15:30:11
Программа кодирования                    : mkvmerge v6.1.0 ('Old Devil') built on Mar  2 2013 14:32:37
Библиотека кодирования                   : libebml v1.3.0 + libmatroska v1.4.0
Видео
Идентификатор                            : 1
Формат                                   : AVC
Формат/Информация                        : Advanced Video Codec
Профиль формата                          : [url=mailto:[email protected]][email protected][/url]
Параметр CABAC формата                   : Да
Параметр ReFrames формата                : 6 кадров
Идентификатор кодека                     : V_MPEG4/ISO/AVC
Продолжительность                        : 1 ч. 29 м.
Битрейт                                  : 2143 Кбит/сек
Ширина                                   : 720 пикселей
Высота                                   : 438 пикселей
Соотношение сторон                       : 2,35:1
Соотношение сторон в оригинале           : 2,35:1
Режим частоты кадров                     : Постоянный
Частота кадров                           : 25,000 кадров/сек
Цветовое пространство                    : YUV
Субдискретизация насыщенности            : 4:2:0
Битовая глубина                          : 8 бит
Тип развёртки                            : Прогрессивная
Бит/(Пиксели*Кадры)                      : 0.272
Размер потока                            : 1,31 Гбайт (90%)
Библиотека кодирования                   : x264 core 130 r2273 b3065e6
Настройки программы                      : cabac=1 / ref=6 / deblock=1:0:0 / analyse=0x3:0x133 / me=umh / subme=9 / psy=1 / psy_rd=1.00:0.00 / mixed_ref=1 / me_range=36 / chroma_me=1 / trellis=2 / 8x8dct=1 / cqm=0 / deadzone=21,11 / fast_pskip=1 / chroma_qp_offset=-2 / threads=3 / lookahead_threads=1 / sliced_threads=0 / nr=0 / decimate=1 / interlaced=0 / bluray_compat=0 / constrained_intra=0 / bframes=9 / b_pyramid=2 / b_adapt=2 / b_bias=0 / direct=3 / weightb=1 / open_gop=0 / weightp=2 / keyint=250 / keyint_min=25 / scenecut=40 / intra_refresh=0 / rc_lookahead=60 / rc=2pass / mbtree=1 / bitrate=2143 / ratetol=1.0 / qcomp=0.60 / qpmin=0 / qpmax=69 / qpstep=4 / cplxblur=20.0 / qblur=0.5 / ip_ratio=1.40 / aq=1:1.00
Язык                                     : English
Default                                  : Да
Forced                                   : Нет
Аудио
Идентификатор                            : 2
Формат                                   : AC-3
Формат/Информация                        : Audio Coding 3
Расширение режима                        : CM (complete main)
Параметр Endianness формата              : Big
Идентификатор кодека                     : A_AC3
Продолжительность                        : 1 ч. 29 м.
Вид битрейта                             : Постоянный
Битрейт                                  : 192 Кбит/сек
Каналы                                   : 2 канала
Расположение каналов                     : Front: L R
Частота                                  : 48,0 КГц
Частота кадров                           : 31,250 кадров/сек (1536 spf)
Битовая глубина                          : 16 бит
Метод сжатия                             : С потерями
Размер потока                            : 123 Мбайт (8%)
Default                                  : Да
Forced                                   : Нет
Скриншоты:

Создавать темы 23-Фев-2017 14:10 (спустя 6 часов)

Геннадич , спасибо за душевный фильм! С праздником вас! aa aj ax ax ax

Создавать темы 24-Фев-2017 11:35 (спустя 21 час)

Lida1225,
Рейтинг@Mail.ru