Мистер Питкин вверх тормашками / Up in the World (Джон Пэдди Кастэйрс / John Paddy Carstairs) [1956, Комедия, DVDRip]

 

Создавать темы 18-Фев-2017 11:37

- Мистер Питкин вверх тормашками / Up in the World - Производство: Великобритания, The Rank Organisation Film Productions Ltd
Жанр: Комедия
Режиссер: Джон Пэдди Кастэйрс
Актеры: Норман Уисдом, Морин Суонсон, Джерри Десмонд, Мишель Каридия, Колин Гордон, Эмброзин Филпоттс, Майкл Уорд, Джилл Диксон, Эдвин Стайлз, Хай Хэзелл
Описание:
Норман Питкин работает мойщиком окон в шикарном особняке. Однажды сына хозяев дома похищают бандиты. Однако они не учли, что окна в этом доме моет не кто-нибудь, а сам мистер Питкин!
Норману удается освободить мальчика, но тот в результате травмы головы теряет память, и когда приезжает полиция, незадачливого спасителя принимают за главного гангстера…


Возраст: 12+ (зрителям, достигшим 12 лет)
Рейтинг MPAA: PG-13 (детям до 13 лет просмотр нежелателен)
Дата выхода DVD/Blu-ray релиза: 6 декабря 1956,
Продолжительность: 01:26:46
Качество видео: DVDRip
Перевод: Многоголосый закадровый
Субтитры: Нет
Видео: Xvid, 720x432, ~2052 Кbps
Аудио: AC3, 2 ch, 192 Kbps

МИ

Общее
Полное имя                               : \Mister.Pitkin.vverh.tormashkami.1956.XviD.DVDRip.Kinozal.TV.avi
Формат                                   : AVI
Формат/Информация                        : Audio Video Interleave
Размер файла                             : 1,36 Гбайт
Продолжительность                        : 1 ч. 26 м.
Общий поток                              : 2251 Кбит/сек
Программа кодирования                    : VirtualDubMod 1.5.4.1 (build 2178/release)
Библиотека кодирования                   : VirtualDubMod build 2178/release
Видео
Идентификатор                            : 0
Формат                                   : MPEG-4 Visual
Профиль формата                          : Advanced [email protected]
Параметр BVOP формата                    : 1
Параметр QPel формата                    : Нет
Параметр GMC формата                     : Без точки перехода
Параметр матрицы формата                 : Выборочная
Идентификатор кодека                     : XVID
Идентификатор кодека/Подсказка           : XviD
Продолжительность                        : 1 ч. 26 м.
Битрейт                                  : 2052 Кбит/сек
Ширина                                   : 720 пикселей
Высота                                   : 432 пикселя
Соотношение сторон                       : 5:3
Частота кадров                           : 25,000 кадров/сек
Цветовое пространство                    : YUV
Субдискретизация насыщенности            : 4:2:0
Битовая глубина                          : 8 бит
Тип развёртки                            : Прогрессивная
Метод сжатия                             : С потерями
Бит/(Пиксели*Кадры)                      : 0.264
Размер потока                            : 1,24 Гбайт (91%)
Библиотека кодирования                   : XviD 1.2.0.dev47 (UTC 2006-11-01)
Аудио
Идентификатор                            : 1
Формат                                   : AC-3
Формат/Информация                        : Audio Coding 3
Расширение режима                        : CM (complete main)
Параметр Endianness формата              : Big
Идентификатор кодека                     : 2000
Продолжительность                        : 1 ч. 26 м.
Вид битрейта                             : Постоянный
Битрейт                                  : 192 Кбит/сек
Каналы                                   : 2 канала
Расположение каналов                     : Front: L R
Частота                                  : 48,0 КГц
Метод сжатия                             : С потерями
Размер потока                            : 119 Мбайт (9%)
Выравнивание                             : Разделение по промежуткам
Продолжительность промежутка             : 96  мс. (2,40 видеокадра)
Время предзагрузки промежутка            : 96  мс.
Язык                                     : Russian

Рецензия, отзыв:

Моя любимая классика забытого вами великого кинематографа.
И по газону не ходить!!!
Мистер Питкин: Вверх тормашками (я люблю этот фильм)
Перед нами очередной совместный фильм английского актера Нормана Уисдома и английского режиссера Джона Пэдди Кастэйрса. Фильм вышел в далеком 1956 году. Для английского актера Нормана Уисдома данный фильм стал серединой творчества. Он уже окончательно зафиксировал своего фирменного персонажа мистера Питкина. Норман Уисдом перешел уже на новый уровень, и теперь его актерская игра была просто идеальной.
В этом фильме наш добрый неудачник мистер Питкин случайно устроился работать мойщиком окон в один богатый особняк. Так получается, что этим своим поступком он перепутал все планы грабителей, которые послали в этот особняк своего человека, чтобы тот смог устроится мойщиком окон. Это им нужно для того, чтобы похитить сына богатой леди с целью выкупа. Но вы понимаете, что мистера Питкина просто невозможно опередить и он уже пытается мыть окна в этом особняке, а это значит, что теперь все будет по-другому. Ждите больших погромов.
Конечно, издалека может показаться, что сценарий этого фильма стандартен для англичан. Главный герой даже не подозревает, что происходит вокруг него. Но на самом деле фильм получился очень ярким. Норман Уисдом в этом фильме просто прыгнул выше своей головы, и смог рассмешить свою публику просто до слез. За его гримасами и движениями просто интересно наблюдать. Могу сказать, что я от фильма получил большое удовольствие.
И еще хотел сказать насчет юмора в фильме. Вы знаете, я вот смотрю современные комедии, и мне становится очень грустно, потому что сейчас все комедии стали пошлыми, а это говорит уже о деградации народа. Просто посмотрите этот фильм. Я не говорю, что в этом фильме юмор идеален. В некоторых моментах юмор можно назвать грубым, но никогда его нельзя назвать пошлым. Великий комик Норман Уисдом никогда не играл в пошлых картинах. Поверьте, это дорогого стоит.
Я хочу посоветовать посмотреть этот фильм всем фанатам английского классического кинематографа. Перед нами настоящий шедевр. Мистера Питкина можно не любить, но настоящие киноманы просто обязаны знать такие картины. Рекомендую.
Спасибо.
10 из 10
Скриншоты:

ещё скриншотов:

Рейтинг@Mail.ru