Реликт / The Relic (Питер Хайамс / Peter Hyams) [1997 г., Ужасы, триллер, HDRip] AVO (Ю.Живов) + original eng

 

Создавать темы 14-Янв-2014 02:44

Реликт / The Relic Год выпуска: 1997
Мировая премьера: 10 января 1997
Производство: Германия, США, Япония, Великобритания, Новая Зеландия
Жанр: Ужасы, триллер
Продолжительность: 01:49:40
Перевод: Авторский (одноголосый) Ю.Живов
Оригинальный аудиопоток: Английский
Режиссер: Питер Хайамс / Peter Hyams
В ролях:
Пенелопа Энн Миллер /Penelope Ann Miller/, Том Сайзмор /Tom Sizemore/, Линда Хант /Linda Hunt/, Джеймс Уитмор /James Whitmore/, Клэйтон Ронер /Clayton Rohner/, Чи Муи Ло /Chi Moui Lo/, Томас Райан /Thomas Ryan/, Роберт Лессер /Robert Lesser/, Дайан Робин /Diane Robin/, Льюис Ван Берген /Lewis Van Bergen/, Джин Дэвис /Gene Davis/, Джон ДиСанти /John DiSanti/, Дэвид Провэл /David Proval/, Констанс Тауэрс /Constance Towers/, Фрэнсис З. МакКарти /Francis X. McCarthy/, Одра Линдли /Audra Lindley/, Джон Капелос /John Kapelos/, Тико Уэллс /Tico Wells/, Майк Бакарелла /Mike Bacarella/ ...
Описание:
Ученый Чикагского Национального Исторического музея возвращается из экспедиции в Южную Америку с большим грузом археологических экспонатов. Но, когда ящики попадают в хранилище музея, выясняется, что сам ученый пропал, а на борту транспортного судна, доставлявшего груз, произошла серия загадочных убийств.
После того, как в музее начинают пропадать люди, полиция Чикаго начинает расследование. Офицер Винсент Д’Агоста с помощью Марго Грин, доктора исторических наук, пытается выявить связь между исчезновениями людей в музее и убийствами на борту корабля.
То, что они обнаружили, не могло им присниться и в самых страшных кошмарах…
Источник/Качество: HDRip
Формат: AVI
Видео кодек: XviD
Аудио кодек: AC3
Видео: 720x304, 1699 kbps, 23.976 fps, 0.32 bit/pixel
Audio 1: Dolby AC3 48000Hz 6ch 448Kbps Ю.Живов
Audio 2: Dolby AC3 48000Hz 6ch 448Kbps Оригинал

Награды

Сатурн, 1997 год
Номинации (2):
Лучшая актриса (Пенелопа Энн Миллер)
Лучший фильм ужасов

Знаете ли вы, что...

Роль Винсента Д’Агосто изначально предлагалась Харрисону Форду.

Рецензия

«Реликт» является отличным фильмом о монстре.
Учёный из Чикагского Национального Музея возвращается из экспедиции в Южной Америки с большим грузом. Но когда корабль приходит, выясняется что все мертвы.
Но вскоре убийства начинают происходить и в музее. Офицер Винсент Д’Агосто с помощью доктора исторических наук Марко Грин, пытается выявить связь между убийствами на корабле и в музее. Но они не представляют с чем им придётся столкнуться.
Фильм достаточно напряжён. Есть страшные моменты. Монстр появляется внезапно. Больше всего впечатляет момент, когда система запирает людей в музее. Свет отключился. И никто не знает где монстр. Саспенс в этот момент находится на очень высоком уровне. Вложенные деньги потрачены не зря. Питер Хайамс хорошо поработал над постановкой.
Актёры: Хорошо себя показали Пенелопа Энн Миллер и Том Сайзмор. Также отлично поработал и Брайан Стил, реалистично передав модель нападения и действий Котоги.
Монстр: Котога. Смесь человека, геккона и паука. Он поистине монструозен. Свободно перемещается по стенам. Появляется из ниоткуда. Его тяжело убить. Но Котога нуждается в человеческом гипоталамусе.
И что бы хотелось сказать в конце. Получился отличный хоррор со свирепым монстром, приличным саспенсом и интригующим сюжетом.
10 из 10
4 июля 2010 / Carnosaur1994

Media Info

Общее
Полное имя : D:\[Pirat.ca]\! ~ Consul ~ !\Реликт (The Relic) 1997\v2\Relic.1997.HDRip.avi
Формат : AVI
Формат/Информация : Audio Video Interleave
Профиль формата : OpenDML
Размер файла : 2,00 Гбайт
Продолжительность : 1 ч. 49 м.
Общий поток : 2613 Кбит/сек
Режиссёр : Consul
Программа кодирования : VirtualDubModRus 1.5.10.2 (build 2542/release)
Библиотека кодирования : VirtualDubMod build 2542/release
Примечание : Consul specifically for www.pirat.ca
Видео
Идентификатор : 0
Формат : MPEG-4 Visual
Профиль формата : Advanced [email protected]
Параметр BVOP формата : 3
Параметр QPel формата : Нет
Параметр GMC формата : Без точки перехода
Параметр матрицы формата : Выборочная
Идентификатор кодека : XVID
Идентификатор кодека/Подсказка : XviD
Продолжительность : 1 ч. 49 м.
Битрейт : 1699 Кбит/сек
Ширина : 720 пикселей
Высота : 304 пикселя
Соотношение сторон : 2,35:1
Частота кадров : 23,976 кадра/сек
Цветовое пространство : YUV
Субдискретизация насыщенности : 4:2:0
Битовая глубина : 8 бит
Тип развёртки : Прогрессивная
Метод сжатия : С потерями
Бит/(Пиксели*Кадры) : 0.324
Размер потока : 1,30 Гбайт (65%)
Библиотека кодирования : XviD 1.2.1 (UTC 2008-12-04)
Аудио #1
Идентификатор : 1
Формат : AC-3
Формат/Информация : Audio Coding 3
Расширение режима : CM (complete main)
Идентификатор кодека : 2000
Продолжительность : 1 ч. 49 м.
Вид битрейта : Постоянный
Битрейт : 448 Кбит/сек
Каналы : 6 каналов
Расположение каналов : Front: L C R, Side: L R, LFE
Частота : 48,0 КГц
Битовая глубина : 16 бит
Метод сжатия : С потерями
Размер потока : 351 Мбайт (17%)
Выравнивание : Разделение по промежуткам
Продолжительность промежутка : 42 мс. (1,00 видеокадр)
Заголовок : AVO ( Ю.Живов )
Аудио #2
Идентификатор : 2
Формат : AC-3
Формат/Информация : Audio Coding 3
Расширение режима : CM (complete main)
Идентификатор кодека : 2000
Продолжительность : 1 ч. 49 м.
Вид битрейта : Постоянный
Битрейт : 448 Кбит/сек
Каналы : 6 каналов
Расположение каналов : Front: L C R, Side: L R, LFE
Частота : 48,0 КГц
Битовая глубина : 16 бит
Метод сжатия : С потерями
Размер потока : 351 Мбайт (17%)
Выравнивание : Разделение по промежуткам
Продолжительность промежутка : 42 мс. (1,00 видеокадр)
Заголовок : Оригинал

Скриншоты

- - -
Яндекс.Метрика
Рейтинг@Mail.ru