[ Сегодня на трекере фрилич! Идет свободное скачивание без начисления Download ]

Смертельные мысли / Mortal thoughts (Алан Рудольф / Alan Rudolph) [1991 г., Триллер, детектив, DVDRip] AVO (А.Михалёв) + original eng

 

Создавать темы 14-Янв-2014 02:37

Смертельные мысли / Mortal thoughts Год выпуска: 1991
Мировая премьера: 19 апреля 1991
Производство: США
Жанр: Триллер, детектив
Продолжительность: 01:42:50
Перевод: Авторский (одноголосый) А.Михалёв
Оригинальный аудиопоток: Английский
Режиссер: Алан Рудольф / Alan Rudolph
В ролях:
Деми Мур / Demi Moore, Гленн Хедли / Glenn Headly, Брюс Уиллис / Bruce Willis, Джон Панкоу / John Pankow, Харви Кейтель / Harvey Keitel, Билли Нил / Billie Neal, Фрэнк Винсент / Frank Vincent, Карен Шалло / Karen Shallo, Кристал Филд / Crystal Field, Марианн Леоне / Marianne Leone, Марк Барон / Marc Baron, Дорис МакКарти / Doris McCarthy ...
Описание:
Синтия и Джойс — лучшие подруги, и судьба подвергает их дружбу страшному испытанию. Неуравновешенный муж Джойс найден мертвым. Много раз несчастная женщина обещала убить его.
И накануне гибели между ними вспыхнула очередная ссора. Синтия прекрасно знала мрачную историю их взаимоотношений, но у следователя не сказала ни слова правды. Это была ложь во спасение. Но сможет ли она спасти Синтию от страшной истины?
Доп. информация:
Бюджет $8 000 000
Сборы в США $18 784 957
За DVD5 спасибо Goldtwait
Источник/Качество: DVDRip
Формат: AVI
Видео кодек: XviD
Аудио кодек: AC3
Видео: 720x400, 1638 kbps, 23.976 fps, 0.24 bit/pixel
Аудио 1: Dolby AC3 48000Hz stereo 192Kbps А.Михалёв
Аудио 2: Dolby AC3 48000Hz stereo 192Kbps Оригинал

Рецензия

Синтия и Джойс лучшие подруги, держат салон красоты. Джойс повезло меньше, мало того что муж не собирался обеспечивать, семью так еще и поколачивал свою благоверную. B итоге как говорится, получил по заслугам. Облегчение скажете вы? не тут то было. Все прекрасно понимали кто и зачем это мог сделать. Синтию вызывают на допрос, в надежде услышать правду. Начинается самое интересное- фильм построен на допросе Синтии. Нам четко и ясно показывают воспоминания их нелегкой жизни, кто и зачем хотел смерти мужа Джойс. Как только уже думаешь что начинаешь распутывать все по очереди, происходят события которых никто не ожидал. Меняется и отношение к героям
Отличный психологический триллер
В одном можете быть уверены — до самого конца фильма Вам не удастся понять как все было на самом деле и кто же убийца. Финал будет неожиданным и это самый большой плюс фильма
10 из 10

Media Info

Общее
Полное имя : D:\[Pirat.ca]\! ~ Consul ~ !\Смертельные мысли (1991) DVDRip\v2\Smertelnie misli.1991.DVDRip.avi
Формат : AVI
Формат/Информация : Audio Video Interleave
Размер файла : 1,46 Гбайт
Продолжительность : 1 ч. 42 м.
Общий поток : 2037 Кбит/сек
Режиссёр : Consul
Программа кодирования : VirtualDubModRus 1.5.10.2 (build 2542/release)
Библиотека кодирования : VirtualDubMod build 2542/release
Примечание : Consul specifically for www.pirat.ca
Видео
Идентификатор : 0
Формат : MPEG-4 Visual
Профиль формата : Advanced [email protected]
Параметр BVOP формата : 1
Параметр QPel формата : Нет
Параметр GMC формата : Без точки перехода
Параметр матрицы формата : Выборочная
Идентификатор кодека : XVID
Идентификатор кодека/Подсказка : XviD
Продолжительность : 1 ч. 42 м.
Битрейт : 1638 Кбит/сек
Ширина : 720 пикселей
Высота : 400 пикселей
Соотношение сторон : 16:9
Частота кадров : 23,976 кадра/сек
Цветовое пространство : YUV
Субдискретизация насыщенности : 4:2:0
Битовая глубина : 8 бит
Тип развёртки : Прогрессивная
Метод сжатия : С потерями
Бит/(Пиксели*Кадры) : 0.237
Размер потока : 1,18 Гбайт (80%)
Библиотека кодирования : XviD 1.2.0.dev47 (UTC 2006-11-01)
Аудио #1
Идентификатор : 1
Формат : AC-3
Формат/Информация : Audio Coding 3
Расширение режима : CM (complete main)
Идентификатор кодека : 2000
Продолжительность : 1 ч. 42 м.
Вид битрейта : Постоянный
Битрейт : 192 Кбит/сек
Каналы : 2 канала
Расположение каналов : Front: L R
Частота : 48,0 КГц
Битовая глубина : 16 бит
Метод сжатия : С потерями
Размер потока : 141 Мбайт (9%)
Выравнивание : Разделение по промежуткам
Продолжительность промежутка : 42 мс. (1,00 видеокадр)
Заголовок : AVO ( А.Михалёв )
Аудио #2
Идентификатор : 2
Формат : AC-3
Формат/Информация : Audio Coding 3
Расширение режима : CM (complete main)
Идентификатор кодека : 2000
Продолжительность : 1 ч. 42 м.
Вид битрейта : Постоянный
Битрейт : 192 Кбит/сек
Каналы : 2 канала
Расположение каналов : Front: L R
Частота : 48,0 КГц
Битовая глубина : 16 бит
Метод сжатия : С потерями
Размер потока : 141 Мбайт (9%)
Выравнивание : Разделение по промежуткам
Продолжительность промежутка : 42 мс. (1,00 видеокадр)
Заголовок : Оригинал

Скриншоты

- - -
Яндекс.Метрика
Рейтинг@Mail.ru