Ночной Дозор / Night Watch (Тимур Бекмамбетов) [2008, ужасы, фэнтези, боевик, триллер, BDRip] 1080p

 

Создавать темы 07-Окт-2013 16:01

Информация о фильме:
Название: Ночной дозор
Год выхода: 2004
Жанр: ужасы, фэнтези, боевик, триллер
Режиссер: Тимур Бекмамбетов
В главных ролях: Константин Хабенский, Владимир Меньшов, Валерий Золотухин, Мария Порошина, Галина Тюнина, Гоша Куценко, Алексей Чадов, Жанна Фриске, Илья Лагутенко, Виктор Вержбицкий, Римма Маркова, Мария Миронова, Алексей Маклаков, Александр Самойленко, Дима Мартынов
О фильме:
Все знают, что на ночных улицах опасно. Но в данном случае речь идет не о преступниках и маньяках. Когда наступает ночь, и силы Зла властвуют безраздельно, можно столкнуться с теми, с кем не встретишься днем — темными магами, вампирами и прочей нечистью. Их сила столь велика, что справиться с ними обычным оружием невозможно.
Но по следу «ночных охотников» идут те, кто веками сражается с порождениями сумрака и побеждает их, неукоснительно соблюдая при этом Договор, заключенный тысячелетия тому назад между Светлыми и Темными… Имя им — Ночной Дозор. Их предназначение — сохранение равновесия между Добром и Злом, нарушение которого вызывает разрушения, войны, революции, вселенские катастрофы.
Каждый плохой человеческий поступок — измена, предательство, убийство, равно, как и хороший, ложится на чашу весов, перевешивая их то в одну, то в другую сторону. Именно поэтому и силы Света, и силы Тьмы вынуждены существовать в двух мирах: реальном и потустороннем, пытаясь либо подтолкнуть человека к греху, либо отвратить от него…

Выпущено: Россия
Продолжительность: 01:54:21
Перевод: Оригинал (full) + Английский
Файл
Кодек: x264
Качество: BDRip 1080p
Видео: 1920x1040, 8436 Kbps, 23.976 fps
Аудио #1: AC-3, 6 ch, 640 kbps (Rus)
Аудио #2: AC-3, 6 ch, 640 kbps (Eng)
Субтитры: английские

Скриншоты

MI

Общее
Уникальный идентификатор : 219934697035431769465272986223520641115 (0xA575E1C3160902C8BDF43B94F3C9F05B)
Полное имя : Ночной дозор.2004.BDRip.1080p.Rus.Eng.mkv
Формат : Matroska
Версия формата : Version 2
Размер файла : 7,76 Гбайт
Продолжительность : 1 ч. 54 м.
Общий поток : 9711 Кбит/сек
Название фильма : Ночной дозор.2004
Дата кодирования : UTC 2012-11-30 15:14:42
Программа кодирования : mkvmerge v5.8.0 ('No Sleep / Pillow') built on Sep 2 2012 15:37:04
Библиотека кодирования : libebml v1.2.3 + libmatroska v1.3.0
Видео
Идентификатор : 1
Формат : AVC
Формат/Информация : Advanced Video Codec
Профиль формата : [email protected]
Параметр CABAC формата : Да
Параметр ReFrames формата : 4 кадра
Идентификатор кодека : V_MPEG4/ISO/AVC
Продолжительность : 1 ч. 54 м.
Битрейт : 8436 Кбит/сек
Ширина : 1920 пикселей
Высота : 1040 пикселей
Соотношение сторон : 1,85:1
Режим частоты кадров : Постоянный
Частота кадров : 23,976 кадра/сек
Цветовое пространство : YUV
Субдискретизация насыщенности : 4:2:0
Битовая глубина : 8 бит
Тип развёртки : Прогрессивная
Бит/(Пиксели*Кадры) : 0.176
Размер потока : 6,58 Гбайт (85%)
Заголовок : Rip by Boriy
Библиотека кодирования : x264 core 129 r2230 1cffe9f
Настройки программы : cabac=1 / ref=4 / deblock=1:0:0 / analyse=0x3:0x113 / me=umh / subme=10 / psy=1 / psy_rd=1.00:0.10 / mixed_ref=1 / me_range=32 / chroma_me=1 / trellis=2 / 8x8dct=1 / cqm=0 / deadzone=21,11 / fast_pskip=0 / chroma_qp_offset=-3 / threads=12 / lookahead_threads=2 / sliced_threads=0 / nr=0 / decimate=0 / interlaced=0 / bluray_compat=0 / constrained_intra=0 / bframes=5 / b_pyramid=2 / b_adapt=2 / b_bias=0 / direct=3 / weightb=1 / open_gop=0 / weightp=2 / keyint=240 / keyint_min=23 / scenecut=40 / intra_refresh=0 / rc=2pass / mbtree=0 / bitrate=8436 / ratetol=1.0 / qcomp=0.60 / qpmin=0 / qpmax=69 / qpstep=4 / cplxblur=20.0 / qblur=0.5 / ip_ratio=1.40 / pb_ratio=1.30 / aq=1:0.80
Язык : English
Default : Да
Forced : Нет
Аудио #1
Идентификатор : 2
Формат : AC-3
Формат/Информация : Audio Coding 3
Расширение режима : CM (complete main)
Параметр Endianness формата : Big
Идентификатор кодека : A_AC3
Продолжительность : 1 ч. 54 м.
Вид битрейта : Постоянный
Битрейт : 640 Кбит/сек
Каналы : 6 каналов
Расположение каналов : Front: L C R, Side: L R, LFE
Частота : 48,0 КГц
Битовая глубина : 16 бит
Метод сжатия : С потерями
Размер потока : 524 Мбайт (7%)
Заголовок : Оригинал
Язык : Russian
Default : Да
Forced : Нет
Аудио #2
Идентификатор : 3
Формат : AC-3
Формат/Информация : Audio Coding 3
Расширение режима : CM (complete main)
Параметр Endianness формата : Big
Идентификатор кодека : A_AC3
Продолжительность : 1 ч. 54 м.
Вид битрейта : Постоянный
Битрейт : 640 Кбит/сек
Каналы : 6 каналов
Расположение каналов : Front: L C R, Side: L R, LFE
Частота : 48,0 КГц
Битовая глубина : 16 бит
Метод сжатия : С потерями
Размер потока : 524 Мбайт (7%)
Язык : English
Default : Нет
Forced : Нет
Текст
Идентификатор : 4
Формат : UTF-8
Идентификатор кодека : S_TEXT/UTF8
Идентификатор кодека/Информация : UTF-8 Plain Text
Язык : English
Default : Нет
Forced : Нет
Меню
00:00:00.000 : :Chapter 1
00:04:00.073 : :Chapter 2
00:10:54.028 : :Chapter 3
00:15:49.615 : :Chapter 4
00:19:26.790 : :Chapter 5
00:24:12.868 : :Chapter 6
00:28:15.110 : :Chapter 7
00:33:08.861 : :Chapter 8
00:38:08.160 : :Chapter 9
00:40:01.065 : :Chapter 10
00:43:40.951 : :Chapter 11
00:50:44.458 : :Chapter 12
00:58:33.051 : :Chapter 13
01:04:30.491 : :Chapter 14
01:09:26.996 : :Chapter 15
01:13:34.952 : :Chapter 16
01:24:07.542 : :Chapter 17
01:33:18.259 : :Chapter 18
01:37:39.562 : :Chapter 19
01:47:40.787 : :Chapter 20

_________________
Подпись отключена за нарушение правил форума
Яндекс.Метрика
Рейтинг@Mail.ru