Шерлок / Sherlock (2014) HDTVRip [3 сезон, серии 1-3 из 3] (Первый канал)

 

Создавать темы 13-Янв-2014 04:49

-Шерлок / Sherlock (2014) HDTVRip [3 сезон, серии 1-3 из 3] (Первый канал)- Год выпуска: 2014
Жанр: Детектив, Драма, Комедия
Перевод: Дублированный
Озвучка / Автор перевода: 1 канал
Вид субтитров: Отсутствуют
Релиз группа: MyDimka

Дата мировой премьеры: 01.01.2014
Дата российской премьеры: 02.01.2014
Режиссер: Джереми Лавринг, Колм Маккарти, Ник Харран
Актеры: Бенедикт Камбербэтч, Мартин Фриман, Уна Стаббс, Лу Брили, Руперт Грейвз, Марк Гатисс, Зои Телфорд, Винетт Робинсон, Таня Муди, Джонатан Арис и другие.
Описание фильма:
Сериал представляет собой современную версию книг и рассказов о приключениях Шерлока Холмса. Отсюда изменение образов главных персонажей: Холмс здесь не всегда вежлив, но всё так же гениален; в отличие от оригинального Холмса, он не употребляет наркотики и использует никотиновый пластырь. Ватсон, как и в оригинальных произведениях, служил военным врачом в Афганистане. Миссис Хадсон относится к Холмсу как к сыну, хотя и не одобряет то, что он часто приказывает ей как домработнице. Лестрейд не против сотрудничества с Холмсом, и часто сам зовёт его на помощь. Его характер из книг передан девушке-сержанту Салли Донован. Также, в отличие от книг, здесь Холмс и Ватсон называют друг друга по именам, а не по фамилиям.
Третий сезон: после смерти Шерлока проходит два года, жизнь доктора Джона Ватсона идет своим чередом. А вот над Лондоном нависает угроза разрушительной террористической атаки, и Шерлок готовит сценарий своего невероятного воскрешения. Но, если он думает, что за время его отсутствия ничего не изменилось – он будет очень удивлен…
Продолжительность: 01:26:29
Качество видео: HDTVRip
Видеокодек: Xvid
Битрейт видео: ~ 1203 Kbps
Размер кадра: 720x400
Аудиокодек: MP3, 2 ch
Битрейт аудио: 192 Кбит/сек
Сэмпл: Скачать

MediaInfo

General
Complete name : C:\2013\2ZV\Sherlock. S03E01 (2013, SATRip) (MYDIMKA).avi
Format : AVI
Format/Info : Audio Video Interleave
File size : 869 MiB
Duration : 1h 26mn
Overall bit rate : 1 405 Kbps
Writing application : VirtualDubMod 1.5.10.3 | www.virtualdub-fr.org || (build 2550/release)
Writing library : VirtualDubMod build 2550/release
Video
ID : 0
Format : MPEG-4 Visual
Format profile : Advanced [email protected]
Format settings, BVOP : 2
Format settings, QPel : No
Format settings, GMC : No warppoints
Format settings, Matrix : Default (H.263)
Codec ID : XVID
Codec ID/Hint : XviD
Duration : 1h 26mn
Bit rate : 1 203 Kbps
Width : 720 pixels
Height : 400 pixels
Display aspect ratio : 16:9
Frame rate : 25.000 fps
Color space : YUV
Chroma subsampling : 4:2:0
Bit depth : 8 bits
Scan type : Progressive
Compression mode : Lossy
Bits/(Pixel*Frame) : 0.167
Stream size : 744 MiB (86%)
Writing library : XviD 1.2.1 (UTC 2008-12-04)
Audio
ID : 1
Format : MPEG Audio
Format version : Version 1
Format profile : Layer 3
Codec ID : 55
Codec ID/Hint : MP3
Duration : 1h 26mn
Bit rate mode : Constant
Bit rate : 192 Kbps
Channel count : 2 channels
Sampling rate : 48.0 KHz
Compression mode : Lossy
Stream size : 119 MiB (14%)
Alignment : Aligned on interleaves
Interleave, duration : 40 ms (1.00 video frame)
Interleave, preload duration : 504 ms
Writing library : LAME3.99r
Encoding settings : -m s -V 4 -q 2 -lowpass 18.6 -b 192
Скриншоты:

Список серий

01 серия - The Empty Hearse / Пустой катафалк
02 серия - The Sign of Three / Знак трех
03 серия - His Last Vow / Его последний обет
Яндекс.Метрика
Рейтинг@Mail.ru