[ Сегодня на трекере фрилич! Идет свободное скачивание без начисления Download ]

Американская история ужасов / American Horror Story (Сезон 3, серий 10 из 13) (Альфонсо Гомез-Рейон / Alfonso Gomez-Rejon ...) [2012г., ужасы, фантастика, триллер, драма, детектив, ..., WEB-DLRip] MVO (LostFilm) [обновляемая]

 

Создавать темы 12-Янв-2014 22:14

Американская история ужасов
American Horror Story

«You're going to die in there!»
- Русское название: Американская история ужасов
Оригинальное название: American Horror Story
Страна: США
Год выпуска: 2012
Жанр: ужасы, фантастика, триллер, драма, детектив, ...-Озвучка: Студия LostFilm
Перевод: Многоголосый закадровый, профессиональный-Режиссер: Альфонсо Гомез-Рейон / Alfonso Gomez-Rejon, Брэдли Букер / Bradley Buecker, Майкл Аппендаль / Michael Uppendahl ...
В главных ролях: Эван Питерс, Джессика Лэнг, Лили Рэйб, Фрэнсис Конрой, Сара Полсон, Таисса Фармига, Дэнис О’Харе, Закари Куинто, Дилан МакДермотт, Джозеф Файнс ...-Описание фильма:
Третий сезон переносит нас в события, которые происходят спустя 300 лет после печально известного процесса над салемскими ведьмами. Итак, оставшиеся в живых потомки, в чьих жилах течет колдовская кровь, на грани исчезновения. В Новом Орлеане существует специальная школа, в которой ведьм обучают самозащите. И Верховная ведьма Фиона готова на все, чтобы защитить ведьминский клан.-Сезон: 3
Серии: 10 из 13 серий
Продолжительность: ~ 00:49:00 мин серия-Качество видео: WEB-DLRip
Формат: AVI
Видеокодек: XviD
Аудиокодек: Mp3
Видео: MPEG-4 Visual at 1284 Кбит/сек, 720 x 400 (1.800) at 23.976 fps
Аудио: MPEG Audio at 192 Кбит/сек, 2 канала, 48,0 КГц
- --

Список серий:

  • Искусство быть стервой (Bitchcraft)
  • Части мальчиков (Boy Parts)
  • На замену (The Replacements)
  • Дела страшные (Fearful Pranks Ensue)
  • Гори, ведьма, гори! (Burn, Witch. Burn!)
  • И пришел Лесоруб (The Axeman Cometh)
  • Мёртвые (The Dead)
  • Священное принятие (The Sacred Taking)
  • Голова (Head)
  • Магические услады Стиви Никс (The Magical Delights of Stevie Nicks)
-

MediaInfo:

Общее
Полное имя                               : E:\_Сериалы\Американская история ужасов\American Horror Story 3 - LostFilm\American.Horror.Story.S03E01.rus.LostFilm.TV.avi
Формат                                   : AVI
Формат/Информация                        : Audio Video Interleave
Размер файла                             : 521 Мбайт
Продолжительность                        : 49 м.
Режим общего битрейта                    : Переменный
Общий поток                              : 1484 Кбит/сек
Программа кодирования                    : Nandub v1.0rc2
Библиотека кодирования                   : Nandub build 1853/release
Видео
Идентификатор                            : 0
Формат                                   : MPEG-4 Visual
Профиль формата                          : [email protected]
Параметр BVOP формата                    : Нет
Параметр QPel формата                    : Нет
Параметр GMC формата                     : Без точки перехода
Параметр матрицы формата                 : Default (H.263)
Идентификатор кодека                     : XVID
Идентификатор кодека/Подсказка           : XviD
Продолжительность                        : 49 м.
Битрейт                                  : 1284 Кбит/сек
Ширина                                   : 720 пикселей
Высота                                   : 400 пикселей
Соотношение сторон                       : 16:9
Частота кадров                           : 23,976 кадра/сек
Цветовое пространство                    : YUV
Субдискретизация насыщенности            : 4:2:0
Битовая глубина                          : 8 бит
Тип развёртки                            : Прогрессивная
Метод сжатия                             : С потерями
Бит/(Пиксели*Кадры)                      : 0.186
Размер потока                            : 451 Мбайт (87%)
Библиотека кодирования                   : XviD 1.2.1 (UTC 2008-12-04)
Аудио
Идентификатор                            : 1
Формат                                   : MPEG Audio
Версия формата                           : Version 1
Профиль формата                          : Layer 3
Режим                                    : Joint stereo
Расширение режима                        : MS Stereo
Идентификатор кодека                     : 55
Идентификатор кодека/Подсказка           : MP3
Продолжительность                        : 49 м.
Вид битрейта                             : Переменный
Битрейт                                  : 192 Кбит/сек
Каналы                                   : 2 канала
Частота                                  : 48,0 КГц
Метод сжатия                             : С потерями
Размер потока                            : 65,8 Мбайт (13%)
Выравнивание                             : Соединение по промежуткам
Продолжительность промежутка             : 24  мс. (0,58 видеокадр)
Время предзагрузки промежутка            : 491  мс.
Библиотека кодирования                   : LAME3.97b
Настройки программы                      : -m j -V 4 -q 3 -lowpass 18.6 --abr 192
-

Скриншот c названием фильма

-Скриншоты:
-

Еще

-

Внимание! Раздача ведётся путём добавления новых серий!

Внимание! Раздача ведётся путём добавления новых серий; при каждом добавлении создётся новый торрент. Чтобы начать докачку новой серии, пользователям необходимо сделать следующее:
(1) остановить скачивание,
(2) удалить старый торрент у себя из клиента (старые серии удалять не надо),
(3) скачать новый торрент и запустить его у себя в клиенте вместо старого, при этом указать клиенту путь в старую папку куда и должно происходить скачивание новых серий.
Ваш клиент при этом должен произвести хеширование (проверку) старой папки (если не производит сам - помогите ему сделать это), и будет докачивать только те серии которых у вас ещё нет. Старые серии при этом не удаляются, а продолжают раздаваться!
Eсли вы уже удалили старые серии, то предотвратить повторную закачку старых серий можно, отжав галочку в соответсвующих местах при запуске нового торрента.
-Добавлена десятая серия третьего сезона
Первая заменена на PROPER
Яндекс.Метрика
Рейтинг@Mail.ru