[ Сегодня на трекере фрилич! Идет свободное скачивание без начисления Download ]

Битва за империю / The Malay Chronicles: Bloodlines (Исри Крю / Yusry Abd Halim) [2011 г., боевик, приключения, BDRip] (MVO)

 

Создавать темы 11-Янв-2014 15:27

--Битва за империю / The Malay Chronicles: Bloodlines-- Год выпуска: 2011
Мировая премьера: 10 марта 2011
Дата выхода DVD: 8 сентября 2011, «Флагман-Трейд»
Производство: Малайзия
Жанр: боевик, приключения
Продолжительность: 01:49:10
Перевод: Профессиональный (многоголосый) [Лицензия]
Режиссер: Исри Крю / Yusry Abd Halim
В ролях: Стефен Рахман Хьюз, Жавин Стенхауз, Джин Лу, Крэйг Фонг, Хенрик Норман и др.
Описание: Римский принц отправляется с путешествием в древний Китай, чтобы женить на себе прекрасную китайскую принцессу и, тем самым, заполучить контроль над обширными азиатскими землями. Однако, далеко не все разделяют рвение принца. Народ Древней Китайской империи вступает в открытое противостояние с жадным до власти римским завоевателем, кровью отстаивая свое право на независимость.-Сэмпл | | КиноПоиск-Источник/Качество: BDRip
Формат: AVI
Видео кодек: XviD
Аудио кодек: AC3
Видео: 720x400 (1.80:1), 24.000 fps, XviD build 50, 1458 kbps avg, 0.21 bit/pixel
Аудио: 48 kHz, AC3 Dolby Digital, 3/2 (L,C,R,l,r) + LFE ch, 448 kbps

Media Info

Общее
Полное имя : F:\pirat.ca\Битва за империю _2011_BDRip.avi
Формат : AVI
Формат/Информация : Audio Video Interleave
Размер файла : 1,46 Гбайт
Продолжительность : 1 ч. 49 м.
Общий поток : 1916 Кбит/сек
Программа кодирования : VirtualDubMod 1.5.10.3 | www.virtualdub-fr.org || (build 2550/release)
Библиотека кодирования : VirtualDubMod build 2550/release
Видео
Идентификатор : 0
Формат : MPEG-4 Visual
Профиль формата : Advanced [email protected]
Параметр BVOP формата : 1
Параметр QPel формата : Нет
Параметр GMC формата : Без точки перехода
Параметр матрицы формата : Выборочная
Идентификатор кодека : XVID
Идентификатор кодека/Подсказка : XviD
Продолжительность : 1 ч. 49 м.
Битрейт : 1459 Кбит/сек
Ширина : 720 пикселей
Высота : 400 пикселей
Соотношение сторон : 16:9
Частота кадров : 24,000 кадра/сек
Цветовое пространство : YUV
Субдискретизация насыщенности : 4:2:0
Битовая глубина : 8 бит
Тип развёртки : Прогрессивная
Метод сжатия : С потерями
Бит/(Пиксели*Кадры) : 0.211
Размер потока : 1,11 Гбайт (76%)
Библиотека кодирования : XviD 1.2.1 (UTC 2008-12-04)
Аудио
Идентификатор : 1
Формат : AC-3
Формат/Информация : Audio Coding 3
Расширение режима : CM (complete main)
Идентификатор кодека : 2000
Продолжительность : 1 ч. 49 м.
Вид битрейта : Постоянный
Битрейт : 448 Кбит/сек
Каналы : 6 каналов
Расположение каналов : Front: L C R, Side: L R, LFE
Частота : 48,0 КГц
Битовая глубина : 16 бит
Метод сжатия : С потерями
Размер потока : 350 Мбайт (23%)
Выравнивание : Разделение по промежуткам
Продолжительность промежутка : 42 мс. (1,00 видеокадр)
Время предзагрузки промежутка : 500 мс.

Скриншоты

Яндекс.Метрика
Рейтинг@Mail.ru