Элитный спецотряд / Cuerpo de Élite (Хоакин Масон / Joaquín Mazón) [2016, Комедия, Приключения, WEB-DL]

 

Создавать темы 14-Янв-2017 06:48

- Элитный спецотряд / Cuerpo de Élite - Производство: Испания, Mod Producciones, Kowalski Films, Atresmedia Cine
Жанр: Комедия, Приключения
Режиссер: Хоакин Масон
Актеры: Сильвия Абриль, Карлос Адувири, Андони Агиррегомескорта, Пепа Аниорте, Карлос Аресес, Роберт Бодегас, Мики Эспарбе, Мария Леон, Катерина Монтес, Ричард Пена
Описание:
Испания в опасности! Террористы украли атомную бомбу и собираются ее взорвать. Последняя секретная операция правительства Испании обернулась неудачей. Секретный элитный спецотряд попал в засаду и был уничтожен. Стране нужны новые герои. Нужен новый тайный спецотряд. Нужно найти бомбу, нужно спасти человечество, найти предателей, встретиться со старыми друзьями, вспомнить марки молока, заплатить за обед... Одним словом, вперед, Испания!

Релиз от: BadBajo
Продолжительность: 01:36:40
Качество видео: WEB-DL http://sendfile.su/1298905
Перевод: Одноголосый закадровый
Автор перевода: BadBajo
Реклама: Отсутствует
Видео: AVC/H.264, 720х302, ~698 kbps
Аудио: AC3, 6 ch, 640 kbps, CBR l Русский (AVO, BadBajo)

МИ

Format                      : Matroska
Format version              : Version 4 / Version 2
File size                   : 926 MiB
Duration                    : 1 h 36 min
Overall bit rate            : 1 340 kb/s
Encoded date                : UTC 2017-01-13 19:14:43
Writing application         : mkvmerge v9.5.0 ('Quiet Fire') 64bit
Writing library             : libebml v1.3.4 + libmatroska v1.4.5
Cover                       : Yes
Attachments                 : cover.jpg
Video
ID                          : 1
Format                      : AVC
Format/Info                 : Advanced Video Codec
Format profile              : [url=mailto:[email protected]][email protected][/url]
Format settings, CABAC      : Yes
Format settings, ReFrames   : 5 frames
Codec ID                    : V_MPEG4/ISO/AVC
Duration                    : 1 h 36 min
Bit rate                    : 698 kb/s
Width                       : 720 pixels
Height                      : 302 pixels
Display aspect ratio        : 2.40:1
Frame rate mode             : Constant
Frame rate                  : 24.000 FPS
Color space                 : YUV
Chroma subsampling          : 4:2:0
Bit depth                   : 8 bits
Scan type                   : Progressive
Bits/(Pixel*Frame)          : 0.134
Stream size                 : 482 MiB (52%)
Writing library             : x264 core 148 r2705 3f5ed56
Encoding settings           : cabac=1 / ref=5 / deblock=1:-1:-1 / analyse=0x3:0x113 / me=umh / subme=8 / psy=1 / psy_rd=1.00:0.15 / mixed_ref=1 / me_range=16 / chroma_me=1 / trellis=2 / 8x8dct=1 / cqm=0 / deadzone=21,11 / fast_pskip=1 / chroma_qp_offset=-3 / threads=9 / lookahead_threads=1 / sliced_threads=0 / nr=0 / decimate=1 / interlaced=0 / bluray_compat=0 / constrained_intra=0 / bframes=3 / b_pyramid=2 / b_adapt=2 / b_bias=0 / direct=3 / weightb=1 / open_gop=0 / weightp=2 / keyint=250 / keyint_min=24 / scenecut=40 / intra_refresh=0 / rc_lookahead=50 / rc=crf / mbtree=1 / crf=19.0 / qcomp=0.60 / qpmin=0 / qpmax=69 / qpstep=4 / ip_ratio=1.40 / aq=1:1.00
Language                    : English
Default                     : Yes
Forced                      : No
Color range                 : Limited
Matrix coefficients         : BT.709
Audio
ID                          : 2
Format                      : AC-3
Format/Info                 : Audio Coding 3
Mode extension              : CM (complete main)
Format settings, Endianness : Big
Codec ID                    : A_AC3
Duration                    : 1 h 36 min
Bit rate mode               : Constant
Bit rate                    : 640 kb/s
Channel(s)                  : 6 channels
Channel positions           : Front: L C R, Side: L R, LFE
Sampling rate               : 48.0 kHz
Frame rate                  : 31.250 FPS (1536 spf)
Compression mode            : Lossy
Stream size                 : 443 MiB (48%)
Title                       : Cuerpo de Elite.2016_rus_BadBajo
Language                    : Russian
Default                     : Yes
Forced                      : Yes

Дополнительная информация:

Флаг Испа́нии состоит из трёх горизонтальных полос — двух равновеликих красных, верхней и нижней, между которыми расположена жёлтая полоса, ширина которой в два раза больше каждой красной полосы. На жёлтой полосе на расстоянии 1/3 от древкового края полотнища расположено изображение герба Испании.
Флаг Испании в современном виде существует с 1785 года, когда король Карлос III Бурбон повелел испанским военным кораблям использовать знаки, позволяющие отличать их от кораблей других государств — белый морской штандарт Испании, украшенный гербом дома Бурбонов, легко было спутать со штандартами судов других стран. С тех пор красный и жёлтый цвета традиционно ассоциируются с Испанией, хотя как государственные они были приняты только в 1927 году.
В 1931 году была провозглашена республика и принят новый флаг, представляющий собой прямоугольное полотнище с тремя равновеликими полосами: красной, жёлтой и пурпурной. Однако в 1939 году военный мятеж генерала Франсиско Франко окончательно покончил с республикой, и жёлто-красный флаг, который был формально утверждён ещё 1936 году сразу после начала гражданской войны был восстановлен.
Флаг с изображением современного варианта герба был официально введён 19 декабря 1981 года. (Википедия)
Скриншоты:
Рейтинг@Mail.ru