Изгоняющий дьявола / Экзорцист / The Exorcist (Майкл Нанкин, Джейсон Энслер, Руперт Уайатт) [2016, ужасы, триллер, HDTVRip, 720p-LQ] (сезон 1, серии 1-10 из 10) MVO (Victory-Films )

 

Создавать темы 13-Янв-2017 20:57

-Изгоняющий дьявола / Экзорцист / The Exorcist (сезон 1, серии 1-10 из 10) - Производство: США / Morgan Creek Productions, New Neighborhood, 20th Century Fox Television
Жанр: ужасы, триллер
Режиссер: Майкл Нанкин, Джейсон Энслер, Руперт Уайатт
Актеры: Альфонсо Эррера, Бен Дэниелс, Джина Дэвис, Ханна Касулка, Брианна Хоуи, Алан Рак, Музам Маккар, Френсис Гуинан и др.
Описание:
Психологический триллер, события которого перенесены в современность, повествует о смиренном, самоотверженном отце Томасе Ортеге и пылком божьем воине отце Маркусе Лэнге, которым, невзирая на разность взглядов, предстоит объединиться в неравной битве со злом в виде демонической одержимости в одной семье.


Дата мировой премьеры:23 сентября 2016
Продолжительность: ~00:46:00 серия
Качество видео: HDTVRip http://sendfile.su/1268734
Перевод: Многоголосый закадровый, любительский - Victory-Films
Реклама: присутствуют видео, аудио вставки рекламы
Видео: AVC/H.264, 1280x720 (16:9), ~3457 Кбит/с
Аудио: AC3, 2 канала, 192 Кбит/с, CBR

МИ

Полное имя                               : E:Victory-Films\Экзорцист 2016 - Studio Victory-Films\The.Exorcist.S01E01.720p.HDTV.x264-Studio Victory-Films.mkv
Формат                                   : Matroska
Версия формата                           : Version 2
Размер файла                             : 1,17 Гбайт
Продолжительность                        : 46 м.
Общий поток                              : 3641 Кбит/сек
Дата кодирования                         : UTC 2016-08-31 23:24:59
Программа кодирования                    : Lavf54.63.104
Библиотека кодирования                   : Lavf54.63.104
Видео
Идентификатор                            : 1
Формат                                   : AVC
Формат/Информация                        : Advanced Video Codec
Профиль формата                          : [url=mailto:[email protected]][email protected][/url]
Параметр CABAC формата                   : Да
Параметр ReFrames формата                : 1 кадр
Идентификатор кодека                     : V_MPEG4/ISO/AVC
Продолжительность                        : 46 м.
Битрейт                                  : 3457 Кбит/сек
Ширина                                   : 1280 пикселей
Высота                                   : 720 пикселей
Соотношение сторон                       : 16:9
Режим частоты кадров                     : Постоянный
Частота кадров                           : 23,976 кадра/сек
Цветовое пространство                    : YUV
Субдискретизация насыщенности            : 4:2:0
Битовая глубина                          : 8 бит
Тип развёртки                            : Прогрессивная
Бит/(Пиксели*Кадры)                      : 0.156
Размер потока                            : 1,09 Гбайт (93%)
Библиотека кодирования                   : x264 core 129
Default                                  : Да
Forced                                   : Нет
Аудио
Идентификатор                            : 2
Формат                                   : AC-3
Формат/Информация                        : Audio Coding 3
Расширение режима                        : CM (complete main)
Параметр Endianness формата              : Big
Идентификатор кодека                     : A_AC3
Продолжительность                        : 46 м.
Вид битрейта                             : Постоянный
Битрейт                                  : 192 Кбит/сек
Каналы                                   : 2 канала
Расположение каналов                     : Front: L R
Частота                                  : 48,0 КГц
Битовая глубина                          : 16 бит
Метод сжатия                             : С потерями
Размер потока                            : 63,3 Мбайт (5%)
Default                                  : Да
Forced                                   : Нет

Внимание! Раздача ведётся путём добавления новых серий

Внимание! Раздача ведётся путём добавления новых серий; при каждом добавлении создаётся новый торрент.
Чтобы начать докачку новой серии, пользователям необходимо сделать следующее:
1. Остановить скачивание;
2. Удалить старый торрент у себя из клиента (старые серии удалять не надо);
3. Скачать новый торрент и запустить его у себя в клиенте вместо старого, при этом указать клиенту путь в старую папку куда и должно происходить скачивание новых серий. Ваш клиент при этом должен произвести хеширование (проверку) старой папки и будет докачивать только те серии, которых у вас ещё нет. Старые серии при этом не удаляются, а продолжают раздаваться! Eсли вы уже удалили старые серии, то предотвратить повторную закачку старых серий можно, отжав галочку в соответствующих местах при запуске нового торрента.
Скриншоты:
Рейтинг@Mail.ru