[ Сегодня на трекере фрилич! Идет свободное скачивание без начисления Download ]

Быстрее пули / Faster (Джордж Тиллман мл. / George Tillman Jr) [2010 г.] (боевик, триллер, драма, криминал) [Blu-Ray, 1080p] (Dub)

 

Создавать темы 11-Янв-2014 14:40

--Быстрее пули / Faster
--Год выпуска: 2010
Мировая премьера: 4 ноября 2010
Дата выхода DVD: 14 апреля 2011, «Columbia/Sony»
Производство: США Castle Rock Entertainment, CBS Films, State Street Pictures, TriStar Pictures
Жанр: боевик, триллер, драма, криминал
Продолжительность: 01:37:57
Перевод: Профессиональный (дублированный) [Лицензия]
Оригинальный аудиопоток: Английский -Режиссер: Джордж Тиллман мл. / George Tillman Jr-В ролях: Дуэйн Джонсон, Билли Боб Торнтон, Оливер Джексон-Коэн, Карла Гуджино, Мэгги Грэйс, Мун Бладгуд, Адевале Акиннуойе-Агбадже, Том Беренджер, Маурицио Лопез, Джим Гейнс-Описание: Бывший преступник мстит за убийство родного брата во время ограбления десять лет назад, когда кто-то подставил нечистых на руку родственников.- -Источник/Качество: Blu-Ray
Формат: M2TS
Стандарт разрешения: 1080p
Видео кодек: H.26x
Аудио кодек: DTS / AC3
Видео: 1920х1080p , 23,976 fps , 16:9 / High Profile 4.1, H.264, ~ 25453 kbps, 0.549bit/pixel
Аудио 1: DTS-HD Master Audio English 2971 kbps 5.1 / 48 kHz / 2971 kbps / 24-bit (DTS Core: 5.1 / 48 kHz / 1509 kbps / 24-bit)
Аудио 2: Dolby Digital Audio Russian 448 kbps 5.1 / 48 kHz / 448 kbps / DN -4dB (DUB - Лицензия)
Аудио 3: Dolby Digital Audio Ukrainian 448 kbps 5.1 / 48 kHz / 448 kbps / DN -4dB (DUB - Лицензия)
Субтитры: English Russian (Full-length), Russian (Forced)

Media Info

Общее
Полное имя : \FASTER\BDMV\STREAM\00011.m2ts
Формат : BDAV
Формат/Информация : Blu-ray Video
Размер файла : 21,2 Гбайт
Продолжительность : 1 ч. 37 м.
Общий поток : 31,0 Мбит/сек
Максимальный общий битрейт : 48,0 Мбит/сек
Видео
Идентификатор : 4113 (0x1011)
Идентификатор меню : 1 (0x1)
Формат : AVC
Формат/Информация : Advanced Video Codec
Профиль формата : [email protected]
Параметр CABAC формата : Да
Параметр ReFrames формата : 2 кадры
Параметры GOP формата : M=2, N=20
Идентификатор кодека : 27
Продолжительность : 1 ч. 37 м.
Вид битрейта : Переменный
Битрейт : 27,3 Мбит/сек
Ширина : 1920 пикс.
Высота : 1080 пикс.
Соотношение сторон : 16:9
Частота кадров : 23,976 кадр/сек
Цветовое пространство : YUV
Подвыборка цветности : 4:2:0
Битовая глубина : 8 бит
Тип развёртки : Прогрессивная
Бит/(Пиксели*Кадры) : 0.549
Размер потока : 18,7 Гбайт (88%)
Аудио #1
Идентификатор : 4352 (0x1100)
Идентификатор меню : 1 (0x1)
Формат : DTS
Формат/Информация : Digital Theater Systems
Профиль формата : MA / Core
Режим смешивания : Stream extension
Идентификатор кодека : 134
Продолжительность : 1 ч. 37 м.
Вид битрейта : Переменный
Битрейт : 1561 Кбит/сек / 1510 Кбит/сек
Канал(ы) : 6 канала(ов)
Расположение каналов : Front: L C R, Side: L R, LFE
Частота : 48,0 КГц
Битовая глубина : 24 бит
Метод сжатия : Без потерь / Lossy
Аудио #2
Идентификатор : 4353 (0x1101)
Идентификатор меню : 1 (0x1)
Формат : AC-3
Формат/Информация : Audio Coding 3
Расширение режима : CM (complete main)
Идентификатор кодека : 129
Продолжительность : 1 ч. 37 м.
Вид битрейта : Постоянный
Битрейт : 448 Кбит/сек
Канал(ы) : 6 канала(ов)
Расположение каналов : Front: L C R, Side: L R, LFE
Частота : 48,0 КГц
Битовая глубина : 16 бит
Метод сжатия : С потерями
Размер потока : 314 Мбайт (1%)
Аудио #3
Идентификатор : 4354 (0x1102)
Идентификатор меню : 1 (0x1)
Формат : AC-3
Формат/Информация : Audio Coding 3
Расширение режима : CM (complete main)
Идентификатор кодека : 129
Продолжительность : 1 ч. 37 м.
Вид битрейта : Постоянный
Битрейт : 448 Кбит/сек
Канал(ы) : 6 канала(ов)
Расположение каналов : Front: L C R, Side: L R, LFE
Частота : 48,0 КГц
Битовая глубина : 16 бит
Метод сжатия : С потерями
Размер потока : 314 Мбайт (1%)

BDInfo

Total Video
Title Codec Length Movie Size Disc Size Bitrate Bitrate Main Audio Track Secondary Audio Track
----- ------ ------- -------------- -------------- ------- ------- ------------------ ---------------------
00001.MPLS AVC 1:37:57 22 778 179 584 33 471 606 105 31,00 25,45 DTS-HD Master 5.1 2971Kbps (48kHz/24-bit)
[/code]
[code]
DISC INFO:
Disc Title: FASTER_BD_BLUEBIRD
Disc Size: 33 471 606 105 bytes
Protection: AACS
BD-Java: Yes
BDInfo: 0.5.6
PLAYLIST REPORT:
Name: 00001.MPLS
Length: 1:37:57 (h:m:s)
Size: 22 778 179 584 bytes
Total Bitrate: 31,00 Mbps
VIDEO:
Codec Bitrate Description
----- ------- -----------
MPEG-4 AVC Video 25453 kbps 1080p / 23,976 fps / 16:9 / High Profile 4.1
AUDIO:
Codec Language Bitrate Description
----- -------- ------- -----------
DTS-HD Master Audio English 2971 kbps 5.1 / 48 kHz / 2971 kbps / 24-bit (DTS Core: 5.1 / 48 kHz / 1509 kbps / 24-bit)
Dolby Digital Audio Russian 448 kbps 5.1 / 48 kHz / 448 kbps / DN -4dB
Dolby Digital Audio Ukrainian 448 kbps 5.1 / 48 kHz / 448 kbps / DN -4dB
SUBTITLES:
Codec Language Bitrate Description
----- -------- ------- -----------
Presentation Graphics English 21,422 kbps
Presentation Graphics English 17,471 kbps
Presentation Graphics Russian 25,548 kbps
Presentation Graphics Russian 0,126 kbps

Скриншоты

Яндекс.Метрика
Рейтинг@Mail.ru