Земля вампиров 2 / The Stakelander (Дэн Берк, Роберт Ольсен / Dan Berk, Robert Olsen) [2016, Ужасы, Боевик, HDTVRip] VO (Хихидок)

 

Создавать темы 12-Янв-2017 19:03

- Земля вампиров 2 / The Stakelander - Производство: США
Жанр: Ужасы, Боевик
Режиссер: Дэн Берк, Роберт Ольсен
Продюсер: Ларри Фессенден, Грег Ньюман, Питер Фок
Актеры: Коннор Паоло, Ник Дамичи, Лаура Абрамсен, Алан С. Петерсон, Стивен Уильямс, Бонни Деннисон, Кристина Хьюз, Блейн Харт, Алекс Арсено, Дилан Стаман
Описание:
С событий первого фильма прошли годы, Мартин возмужал и обзавелся семьей, но его жену и ребенка убивают упыри, которых теперь ведет за собой одноглазая вампирша, известная под именем Мать. Теперь Мартин мечтает отомстить, для чего отправляется на поиски Мистера — того самого бесстрашного охотника на нечисть, который когда-то помог ему выжить.

Дата мировой премьеры: 14 октября 2016
Продолжительность: 01:20:54
Качество видео: HDTVRip http://sendfile.su/1298509
Перевод: Одноголосый закадровый, любительский (Хихидок)
Видео: Xvid, 708х400, ~1279 Kbps
Аудио: MP3, 2 ch, 192 Kbps, CBR

МИ

Общее
Полное имя                               : J:\vasilliikot\Zemlya.Vampirov.2.avi
Формат                                   : AVI
Формат/Информация                        : Audio Video Interleave
Размер файла                             : 859 Мбайт
Продолжительность                        : 1 ч. 20 м.
Общий поток                              : 1483 Кбит/сек
Название фильма                          : stake.land.
Режиссёр                                 : WinX HD Video Converter Deluxe
Программа кодирования                    : Lavf56.40.101
Видео
Идентификатор                            : 0
Формат                                   : MPEG-4 Visual
Профиль формата                          : [email protected]
Параметр BVOP формата                    : Нет
Параметр QPel формата                    : Нет
Параметр GMC формата                     : Без точки перехода
Параметр матрицы формата                 : Default (H.263)
Идентификатор кодека                     : XVID
Идентификатор кодека/Подсказка           : XviD
Продолжительность                        : 1 ч. 20 м.
Битрейт                                  : 1279 Кбит/сек
Ширина                                   : 708 пикселей
Высота                                   : 400 пикселей
Соотношение сторон                       : 16:9
Частота кадров                           : 23,976 (24000/1001) кадра/сек
Цветовое пространство                    : YUV
Субдискретизация насыщенности            : 4:2:0
Битовая глубина                          : 8 бит
Тип развёртки                            : Прогрессивная
Метод сжатия                             : С потерями
Бит/(Пиксели*Кадры)                      : 0.188
Размер потока                            : 740 Мбайт (86%)
Библиотека кодирования                   : Lavc56.60.100
Аудио
Идентификатор                            : 1
Формат                                   : MPEG Audio
Версия формата                           : Version 1
Профиль формата                          : Layer 3
Режим                                    : Joint stereo
Расширение режима                        : MS Stereo
Идентификатор кодека                     : 55
Идентификатор кодека/Подсказка           : MP3
Продолжительность                        : 1 ч. 20 м.
Вид битрейта                             : Постоянный
Битрейт                                  : 192 Кбит/сек
Каналы                                   : 2 канала
Частота                                  : 44,1 КГц
Метод сжатия                             : С потерями
Размер потока                            : 111 Мбайт (13%)
Выравнивание                             : Соединение по промежуткам
Продолжительность промежутка             : 26  мс. (0,63 видеокадр)
Время предзагрузки промежутка            : 26  мс.
Заголовок                                : Xixidok
Скриншоты:
Рейтинг@Mail.ru