Моя большая семья (Давид Ткебучава) [2012, мелодрама, детектив, WEB-DLRip, 720p-LQ] (серии 1-12 из 12)

 

Создавать темы 12-Янв-2017 19:00

- Моя большая семья (серии 1-12 из 12) - Производство: Россия / ООО "Студия 4"
Жанр: мелодрама, детектив
Режиссер: Давид Ткебучава
Актеры: Анна Снаткина, Владимир Яглыч, Мария Машкова, Андрей Кузичёв, Михаил Жигалов, Сергей Чирков, Евгения Добровольская, Надежда Маркина, Юрий Цурило, Борис Невзоров и др.
Описание:
В рабочем городке живет большая семья Самокрутовых: дед Николай, его сын Петя с женой Настей, и четверо детей Алевтина, Егор и его жена Наталья, Гена и Вероника. Как и в любой семье у Самокрутовых бывает всякое, и ссоры, и споры, и проблемы, которые они стараются решать вместе.
https://www.kinopoisk.ru/film/683374/
Возраст: 12+ (зрителям, достигшим 12 лет)
Релиз от: Sahok20111
Продолжительность: ~00:44:00 серия
Качество видео: WEB-DLRip
Видео: AVC/H.264, 1280x720 (16:9), ~1301 kbps
Аудио: AC3, 2 ch, 192 kbps, CBR

МИ

Общее
Уникальный идентификатор                 : 182752011040705890124660976599810893596 (0x897CC1CDC4BCC65C850603619A42E71C)
Полное имя                               : G:\Моя большая семья (2012)\.mkv
Формат                                   : Matroska
Версия формата                           : Version 4 / Version 2
Размер файла                             : 464 Мбайт
Продолжительность                        : 43 м. 22 с.
Общий поток                              : 1495 Кбит/сек
Дата кодирования                         : UTC 2017-01-10 21:01:45
Программа кодирования                    : mkvmerge v9.7.1 ('Pandemonium') 64bit
Библиотека кодирования                   : libebml v1.3.4 + libmatroska v1.4.5 / Lavf57.25.100
Видео
Идентификатор                            : 1
Формат                                   : AVC
Формат/Информация                        : Advanced Video Codec
Профиль формата                          : [url=mailto:[email protected]][email protected][/url]
Параметр CABAC формата                   : Да
Параметр ReFrames формата                : 3 кадра
Идентификатор кодека                     : V_MPEG4/ISO/AVC
Продолжительность                        : 43 м. 22 с.
Битрейт                                  : 1301 Кбит/сек
Ширина                                   : 1280 пикселей
Высота                                   : 720 пикселей
Соотношение сторон                       : 16:9
Режим частоты кадров                     : Постоянный
Частота кадров                           : 25,000 кадров/сек
Цветовое пространство                    : YUV
Субдискретизация насыщенности            : 4:2:0
Битовая глубина                          : 8 бит
Тип развёртки                            : Прогрессивная
Бит/(Пиксели*Кадры)                      : 0.056
Размер потока                            : 404 Мбайт (87%)
Default                                  : Да
Forced                                   : Нет
Цветовой диапазон                        : Limited
Основные цвета                           : BT.709
Характеристики трансфера                 : BT.709
Коэффициенты матрицы                     : BT.709
Аудио
Идентификатор                            : 2
Формат                                   : AC-3
Формат/Информация                        : Audio Coding 3
Расширение режима                        : CM (complete main)
Параметр Endianness формата              : Big
Идентификатор кодека                     : A_AC3
Продолжительность                        : 43 м. 22 с.
Вид битрейта                             : Постоянный
Битрейт                                  : 192 Кбит/сек
Каналы                                   : 2 канала
Расположение каналов                     : Front: L R
Частота                                  : 44,1 КГц
Частота кадров                           : 28,711 кадров/сек (1536 spf)
Битовая глубина                          : 16 бит
Метод сжатия                             : С потерями
Задержка видео                           : -40 мс.
Размер потока                            : 59,6 Мбайт (13%)
Default                                  : Да
Forced                                   : Нет
Скриншоты:
Рейтинг@Mail.ru