Шпионы по соседству / Keeping Up with the Joneses (Грег Моттола / Greg Mottola) [2016, Боевик, Комедия, BDRip]

 

Создавать темы 12-Янв-2017 17:30

- Шпионы по соседству / Keeping Up with the Joneses - Производство: США | Fox 2000 Pictures, MacDonald/Parkes Productions
Жанр: Боевик, Комедия
Режиссер: Грег Моттола
Продюсер: Лори МакДональд, Уолтер Ф. Паркс, Тимоти М. Борн
Актеры: Зак Галифианакис, Айла Фишер, Джон Хэмм, Галь Гадот, Пэттон Освальт, Минг Жао, Мэтт Уолш, Мэрибет Монро, Майкл Лью, Кевин Данн
Описание: Супружеская пара из пригорода оказывается втянутой в международный шпионский заговор, когда обнаруживает, что их, казалось бы, идеальные новые соседи являются правительственными агентами.

Возраст: 16+ (зрителям, достигшим 16 лет)
Рейтинг MPAA: PG-13 (детям до 13 лет просмотр нежелателен)
Дата мировой премьеры: 19 октября 2016
Дата российской премьеры: 10 ноября 2016, «Двадцатый Век Фокс СНГ»
Продолжительность: 01:45:20
Качество видео: BDRip http://sendfile.su/1297531
Перевод: Дублированный
Язык субтитров: Русский (форс., полные), Английский (полные)
Вид субтитров: Вшитые отключаемые
Видео: AVC/H.264, 1032x430, ~2133 kbps
Аудио #1: AC3, 48 kHz, 6 ch, 384 kbps (русский)
Аудио #2: AC3, 48 kHz, 6 ch, 448 kbps (английский)

МИ

General
Unique ID                                : 182337269717416628638753962610535839115 (0x892CE17A51234F6C956A538BDAA2358B)
Complete name                            : D:\Фильмы\Шпионы по соседству 2016 BDRip-AVC.OIV.mkv
Format                                   : Matroska
Format version                           : Version 4 / Version 2
File size                                : 2.18 GiB
Duration                                 : 1 h 45 min
Overall bit rate                         : 2 967 kb/s
Encoded date                             : UTC 2017-01-09 07:00:04
Writing application                      : mkvmerge v9.7.1 ('Pandemonium') 64bit
Writing library                          : libebml v1.3.4 + libmatroska v1.4.5
Video
ID                                       : 1
Format                                   : AVC
Format/Info                              : Advanced Video Codec
Format profile                           : [url=mailto:[email protected]][email protected][/url]
Format settings, CABAC                   : Yes
Format settings, ReFrames                : 9 frames
Codec ID                                 : V_MPEG4/ISO/AVC
Duration                                 : 1 h 45 min
Bit rate                                 : 2 133 kb/s
Width                                    : 1 032 pixels
Height                                   : 430 pixels
Display aspect ratio                     : 2.40:1
Frame rate mode                          : Constant
Frame rate                               : 23.976 (24000/1001) FPS
Color space                              : YUV
Chroma subsampling                       : 4:2:0
Bit depth                                : 8 bits
Scan type                                : Progressive
Bits/(Pixel*Frame)                       : 0.200
Stream size                              : 1.57 GiB (72%)
Writing library                          : x264 core 146 r2538 121396c
Encoding settings                        : cabac=1 / ref=9 / deblock=1:-3:-2 / analyse=0x3:0x113 / me=umh / subme=10 / psy=1 / psy_rd=1.00:0.00 / mixed_ref=1 / me_range=32 / chroma_me=1 / trellis=2 / 8x8dct=1 / cqm=0 / deadzone=21,11 / fast_pskip=1 / chroma_qp_offset=-2 / threads=6 / lookahead_threads=1 / sliced_threads=0 / nr=0 / decimate=1 / interlaced=0 / bluray_compat=0 / constrained_intra=0 / bframes=13 / b_pyramid=2 / b_adapt=2 / b_bias=0 / direct=1 / weightb=1 / open_gop=0 / weightp=2 / keyint=250 / keyint_min=23 / scenecut=40 / intra_refresh=0 / rc_lookahead=50 / rc=2pass / mbtree=1 / bitrate=2133 / ratetol=1.0 / qcomp=0.60 / qpmin=0 / qpmax=69 / qpstep=4 / cplxblur=20.0 / qblur=0.5 / ip_ratio=1.40 / aq=3:1.00
Language                                 : English
Default                                  : Yes
Forced                                   : No
Audio #1
ID                                       : 2
Format                                   : AC-3
Format/Info                              : Audio Coding 3
Mode extension                           : CM (complete main)
Format settings, Endianness              : Big
Codec ID                                 : A_AC3
Duration                                 : 1 h 45 min
Bit rate mode                            : Constant
Bit rate                                 : 384 kb/s
Channel(s)                               : 6 channels
Channel positions                        : Front: L C R, Side: L R, LFE
Sampling rate                            : 48.0 kHz
Frame rate                               : 31.250 FPS (1536 spf)
Bit depth                                : 16 bits
Compression mode                         : Lossy
Delay relative to video                  : 17 ms
Stream size                              : 289 MiB (13%)
Title                                    : Dub [iTunes]
Language                                 : Russian
Default                                  : Yes
Forced                                   : No
Audio #2
ID                                       : 3
Format                                   : AC-3
Format/Info                              : Audio Coding 3
Mode extension                           : CM (complete main)
Format settings, Endianness              : Big
Codec ID                                 : A_AC3
Duration                                 : 1 h 45 min
Bit rate mode                            : Constant
Bit rate                                 : 448 kb/s
Channel(s)                               : 6 channels
Channel positions                        : Front: L C R, Side: L R, LFE
Sampling rate                            : 48.0 kHz
Frame rate                               : 31.250 FPS (1536 spf)
Bit depth                                : 16 bits
Compression mode                         : Lossy
Stream size                              : 338 MiB (15%)
Language                                 : English
Default                                  : No
Forced                                   : No
Text #1
ID                                       : 4
Format                                   : UTF-8
Codec ID                                 : S_TEXT/UTF8
Codec ID/Info                            : UTF-8 Plain Text
Duration                                 : 1 h 44 min
Bit rate                                 : 1 b/s
Count of elements                        : 20
Stream size                              : 1.11 KiB (0%)
Title                                    : Forced [iTunes]
Language                                 : Russian
Default                                  : Yes
Forced                                   : No
Text #2
ID                                       : 5
Format                                   : UTF-8
Codec ID                                 : S_TEXT/UTF8
Codec ID/Info                            : UTF-8 Plain Text
Duration                                 : 1 h 44 min
Bit rate                                 : 131 b/s
Count of elements                        : 2007
Stream size                              : 100 KiB (0%)
Title                                    : Full [iTunes]
Language                                 : Russian
Default                                  : No
Forced                                   : No
Text #3
ID                                       : 6
Format                                   : UTF-8
Codec ID                                 : S_TEXT/UTF8
Codec ID/Info                            : UTF-8 Plain Text
Duration                                 : 1 h 36 min
Bit rate                                 : 92 b/s
Count of elements                        : 1863
Stream size                              : 65.2 KiB (0%)
Title                                    : Full [iTunes]
Language                                 : English
Default                                  : No
Forced                                   : No
Menu
00:00:00.000                             : en:00:00:00.000
00:03:43.473                             : en:00:03:43.473
00:06:41.651                             : en:00:06:41.651
00:09:55.845                             : en:00:09:55.845
00:13:28.182                             : en:00:13:28.182
00:17:06.025                             : en:00:17:06.025
00:21:07.933                             : en:00:21:07.933
00:26:02.311                             : en:00:26:02.311
00:30:07.514                             : en:00:30:07.514
00:33:56.743                             : en:00:33:56.743
00:37:43.761                             : en:00:37:43.761
00:40:59.457                             : en:00:40:59.457
00:45:35.149                             : en:00:45:35.149
00:49:00.312                             : en:00:49:00.312
00:52:35.152                             : en:00:52:35.152
00:55:59.189                             : en:00:55:59.189
01:00:50.230                             : en:01:00:50.230
01:04:33.244                             : en:01:04:33.244
01:08:47.665                             : en:01:08:47.665
01:12:04.654                             : en:01:12:04.654
01:15:58.554                             : en:01:15:58.554
01:19:31.809                             : en:01:19:31.809
01:22:46.545                             : en:01:22:46.545
01:25:43.972                             : en:01:25:43.972
01:29:02.295                             : en:01:29:02.295
01:31:44.874                             : en:01:31:44.874
01:34:18.528                             : en:01:34:18.528
01:37:32.680                             : en:01:37:32.680
Скриншоты:
Рейтинг@Mail.ru