Дом терпимости / Maison close (Мабрук Эль Мекри, Жером Корнюо, Карло Да Фонсека Парсотам) [2010, драма, DVDRip] (сезон 1, серии 1-8 из 8) BaibaKo

 

Создавать темы 12-Янв-2017 17:05

- Дом терпимости / Maison close (сезон 1, серии 1-8 из 8) - Производство: Франция / Noé Productions
Жанр: драма
Режиссер: Мабрук Эль Мекри, Жером Корнюо, Карло Да Фонсека Парсотам
Актеры: Энн Шаррье, Валери Карсенти, Джемайма Уэст, Катрин Осмален, Клеменс Бретеше, Дебора Гралл, Бландин Беллевур, Эльза Силва, Себастьен Либессар, Николя Бриансон и др.
Описание:
1871 год, три работающие в парижском борделе «ночные бабочки», объединяются в попытке оставить проституцию и начать новую жизнь.


Продолжительность: ~00:52:00 серия
Качество видео: DVDRip http://sendfile.su/1298355
Перевод: Многоголосый закадровый, профессиональный - BaibaKo
Вид субтитров: отдельным файлом
Язык субтитров: русский (JuicyCherry), французский
Видео: Xvid, 640x352 (16:9), ~1260 Kbps
Аудио Rus: MP3, 2 ch, 192 Kbps, CBR - многоголосый закадровый
Аудио Fre: MP3, 2 ch, 130 Kbps, VBR - оригинал

МИ

Общее
Полное имя                               : D:\Дом.Терпимости_Сезон1_DVDRip_BaibaKo\maison.close.e01e01.avi
Формат                                   : AVI
Формат/Информация                        : Audio Video Interleave
Размер файла                             : 577 Мбайт
Продолжительность                        : 55 м. 30 с.
Режим общего битрейта                    : Переменный
Общий поток                              : 1454 Кбит/сек
Программа кодирования                    : VirtualDubModRus 1.5.10.2 (build 2542/release)
Библиотека кодирования                   : VirtualDubMod build 2542/release
Видео
Идентификатор                            : 0
Формат                                   : MPEG-4 Visual
Профиль формата                          : Advanced [email protected]
Параметр BVOP формата                    : 2
Параметр QPel формата                    : Нет
Параметр GMC формата                     : Без точки перехода
Параметр матрицы формата                 : Default (H.263)
Режим смешивания                         : Сжатый битовый поток
Идентификатор кодека                     : XVID
Идентификатор кодека/Подсказка           : XviD
Продолжительность                        : 55 м. 30 с.
Битрейт                                  : 1113 Кбит/сек
Ширина                                   : 640 пикселей
Высота                                   : 352 пикселя
Соотношение сторон                       : 16:9
Частота кадров                           : 25,000 кадров/сек
Цветовое пространство                    : YUV
Субдискретизация насыщенности            : 4:2:0
Битовая глубина                          : 8 бит
Тип развёртки                            : Прогрессивная
Метод сжатия                             : С потерями
Бит/(Пиксели*Кадры)                      : 0.198
Размер потока                            : 442 Мбайт (77%)
Библиотека кодирования                   : XviD 57
Аудио #1
Идентификатор                            : 1
Формат                                   : MPEG Audio
Версия формата                           : Version 1
Профиль формата                          : Layer 3
Режим                                    : Joint stereo
Расширение режима                        : MS Stereo
Идентификатор кодека                     : 55
Идентификатор кодека/Подсказка           : MP3
Продолжительность                        : 55 м. 29 с.
Вид битрейта                             : Постоянный
Битрейт                                  : 192 Кбит/сек
Каналы                                   : 2 канала
Частота                                  : 48,0 КГц
Метод сжатия                             : С потерями
Размер потока                            : 76,2 Мбайт (13%)
Выравнивание                             : Соединение по промежуткам
Продолжительность промежутка             : 40  мс. (1,00 видеокадр)
Время предзагрузки промежутка            : 504  мс.
Библиотека кодирования                   : LAME3.99r
Настройки программы                      : -m j -V 4 -q 3 -lowpass 18.6 -b 192
Аудио #2
Идентификатор                            : 2
Формат                                   : MPEG Audio
Версия формата                           : Version 1
Профиль формата                          : Layer 3
Режим                                    : Joint stereo
Расширение режима                        : MS Stereo
Идентификатор кодека                     : 55
Идентификатор кодека/Подсказка           : MP3
Продолжительность                        : 55 м. 30 с.
Вид битрейта                             : Переменный
Битрейт                                  : 130 Кбит/сек
Каналы                                   : 2 канала
Частота                                  : 48,0 КГц
Метод сжатия                             : С потерями
Размер потока                            : 52,0 Мбайт (9%)
Выравнивание                             : Соединение по промежуткам
Продолжительность промежутка             : 24  мс. (0,60 видеокадр)
Время предзагрузки промежутка            : 140  мс.
Библиотека кодирования                   : LAME3.90.
Настройки программы                      : -m j -V 4 -q 2 -lowpass 17.6 --abr 130
Скриншоты:
Рейтинг@Mail.ru