Кузнец моего счастья (Владимир Петров) [2017, Мелодрама, SATRip]

 

Создавать темы 08-Янв-2017 14:36

- Кузнец моего счастья - Производство: Россия
Жанр: Мелодрама
Режиссер: Владимир Петров
Актеры: Анна Тараторкина, Илья Ермолов, Руслан Чернецкий, Галина Чернобаева, Оксана Лесная, Зоя Антонова
Описание:
Валентина Зорькина — лучший хирург больницы, талантливый врач. Она никогда не сдается, берется за самые сложные случаи и всегда доводит дело до конца. Антон Ковалев — полная противоположность Валентины. Сын состоятельных родителей, относится к жизни легко. В свои 30 лет он так и не определился в профессии, и любое начатое дело бросает на полпути… Казалось бы, пути Валентины и Антона никогда не пересекутся… Однако, по воле случая, они встречаются. Валентина на машине сбивает Антона. Он ударяется готовой и теряет память. Антон не помнит даже своего имени, документов у Антона при себе нет, и все принимают его за обычного бомжа.


Возраст: 12+ (зрителям, достигшим 12 лет)
Продолжительность: 01:33:12
Качество видео: SATRip http://sendfile.su/1297280
Видео: Xvid, 720x448, ~1898 Kbps
Аудио: AC3, 2 ch, 192 Kbps, CBR

МИ

Общее
Полное имя                               : J:\Kuznets.Moego.Schastiya.avi
Формат                                   : AVI
Формат/Информация                        : Audio Video Interleave
Размер файла                             : 1,37 Гбайт
Продолжительность                        : 1 ч. 33 м.
Общий поток                              : 2099 Кбит/сек
Программа кодирования                    : VirtualDubMod 1.5.10.3 | [url=http://www.virtualdub-fr.org]www.virtualdub-fr.org[/url] || (build 2550/release)
Библиотека кодирования                   : VirtualDubMod build 2550/release
Видео
Идентификатор                            : 0
Формат                                   : MPEG-4 Visual
Профиль формата                          : Advanced [email protected]
Параметр BVOP формата                    : 2
Параметр QPel формата                    : Нет
Параметр GMC формата                     : Без точки перехода
Параметр матрицы формата                 : Default (H.263)
Идентификатор кодека                     : XVID
Идентификатор кодека/Подсказка           : XviD
Продолжительность                        : 1 ч. 33 м.
Битрейт                                  : 1898 Кбит/сек
Ширина                                   : 720 пикселей
Высота                                   : 448 пикселей
Соотношение сторон                       : 16:10
Частота кадров                           : 25,000 кадров/сек
Цветовое пространство                    : YUV
Субдискретизация насыщенности            : 4:2:0
Битовая глубина                          : 8 бит
Тип развёртки                            : Прогрессивная
Метод сжатия                             : С потерями
Бит/(Пиксели*Кадры)                      : 0.235
Размер потока                            : 1,24 Гбайт (90%)
Библиотека кодирования                   : XviD 1.2.1 (UTC 2008-12-04)
Аудио
Идентификатор                            : 1
Формат                                   : AC-3
Формат/Информация                        : Audio Coding 3
Расширение режима                        : CM (complete main)
Параметр Endianness формата              : Big
Идентификатор кодека                     : 2000
Продолжительность                        : 1 ч. 33 м.
Вид битрейта                             : Постоянный
Битрейт                                  : 192 Кбит/сек
Каналы                                   : 2 канала
Расположение каналов                     : Front: L R
Частота                                  : 48,0 КГц
Частота кадров                           : 31,250 кадров/сек (1536 spf)
Битовая глубина                          : 16 бит
Метод сжатия                             : С потерями
Размер потока                            : 128 Мбайт (9%)
Выравнивание                             : Разделение по промежуткам
Продолжительность промежутка             : 40  мс. (1,00 видеокадр)
Время предзагрузки промежутка            : 500  мс.
Скриншоты:
Яндекс.Метрика
Рейтинг@Mail.ru