Папа в законе (Стас Иванов) [2013, Мелодрама, WEB-DL, 1080p-LQ] (серии 1-4 из 4)

 

Создавать темы 08-Янв-2017 14:33

- Папа в законе (серии 1-4 из 4) - Производство: Россия, Амедиа Продакшн
Жанр: Мелодрама
Режиссер: Стас Иванов
Актеры: Александр Асташенок, Полина Филоненко, Маша Полиенко, Аркадий Коваль, Полина Толстун, Олег Андреев, Юлия Ерусова, Артем Яковлев, Владимир Матвеев, Вячеслав Коробицын
Описание:
Успешный адвокат Максим Голубев по заданию своего шефа должен уладить последствия ДТП, виновником которого, по словам шефа, является важный клиент их адвокатской конторы. Максим узнает, что пострадавшая – мать его бывшей возлюбленной Кати. В больнице Максим встречает Катю и ее дочь – шестилетнюю Асю.

Возраст: 12+ (зрителям, достигшим 12 лет)
Продолжительность: ~00:45:00 серия
Качество видео: WEB-DL
Видео: AVC/H.264, 1920x1080, ~1973 kbps
Аудио: AC3, 2 ch, 192, CBR

МИ

Общее
Уникальный идентификатор                 : 202783323886630664050375490008112752470 (0x988EA5C71E722952BF55B2D64CCCE756)
Полное имя                               : G:\Папа в законе (2013)\Серия 1.mkv
Формат                                   : Matroska
Версия формата                           : Version 4 / Version 2
Размер файла                             : 703 Мбайт
Продолжительность                        : 45 м. 22 с.
Общий поток                              : 2167 Кбит/сек
Дата кодирования                         : UTC 2017-01-08 12:05:25
Программа кодирования                    : mkvmerge v9.7.1 ('Pandemonium') 64bit
Библиотека кодирования                   : libebml v1.3.4 + libmatroska v1.4.5 / Lavf57.25.100
Видео
Идентификатор                            : 1
Формат                                   : AVC
Формат/Информация                        : Advanced Video Codec
Профиль формата                          : [email protected]
Параметр CABAC формата                   : Да
Параметр ReFrames формата                : 3 кадра
Идентификатор кодека                     : V_MPEG4/ISO/AVC
Продолжительность                        : 45 м. 22 с.
Битрейт                                  : 1973 Кбит/сек
Ширина                                   : 1920 пикселей
Высота                                   : 1080 пикселей
Соотношение сторон                       : 16:9
Режим частоты кадров                     : Постоянный
Частота кадров                           : 25,000 кадров/сек
Цветовое пространство                    : YUV
Субдискретизация насыщенности            : 4:2:0
Битовая глубина                          : 8 бит
Тип развёртки                            : Прогрессивная
Бит/(Пиксели*Кадры)                      : 0.038
Размер потока                            : 640 Мбайт (91%)
Default                                  : Да
Forced                                   : Нет
Цветовой диапазон                        : Limited
Основные цвета                           : BT.709
Характеристики трансфера                 : BT.709
Коэффициенты матрицы                     : BT.709
Аудио
Идентификатор                            : 2
Формат                                   : AC-3
Формат/Информация                        : Audio Coding 3
Расширение режима                        : CM (complete main)
Параметр Endianness формата              : Big
Идентификатор кодека                     : A_AC3
Продолжительность                        : 45 м. 22 с.
Вид битрейта                             : Постоянный
Битрейт                                  : 192 Кбит/сек
Каналы                                   : 2 канала
Расположение каналов                     : Front: L R
Частота                                  : 44,1 КГц
Частота кадров                           : 28,711 кадров/сек (1536 spf)
Битовая глубина                          : 16 бит
Метод сжатия                             : С потерями
Задержка видео                           : -40 мс.
Размер потока                            : 62,3 Мбайт (9%)
Default                                  : Да
Forced                                   : Нет
Скриншоты:
Рейтинг@Mail.ru