Портрет любимого (Кира Ангелина) [2016, Мелодрама, SATRip] (серии 1-4 из 4)

 

Создавать темы 07-Янв-2017 15:56

- Портрет любимого (серии 1-4 из 4) - Производство: Россия
Жанр: Мелодрама
Режиссер: Кира Ангелина
Актеры: Алексей Демидов, Марина Правкина, Любовь Соколинская, Елена Сафонова, Игорь Бочкин, Сергей Рудзевич, Евгений Фроленков (II), Андрей Москвичёв, Алексей Матошин, Алексей Ярмилко, Сергей Сафронов, Владимир Чуприков, Илья Семёнов, Тамара Спиричева
Описание:
Действие происходит в провинциальном городке, где живут две сестры, воспитанные без отца, одной матерью. Скромница Даша давно влюблена в смелого и красивого капитана милиции Славу. Однако внимание парня привлекает вовсе не Даша, а её старшая сестра — красавица Вика. Чувства молодых людей взаимны, и вот уже Слава и Вика готовятся к свадьбе.
Накануне счастливого события во время захвата вооружённого преступника Славу ранят. В результате ранения юноша становится инвалидом, прикованным к креслу. Виктория довольно быстро понимает, что не хочет быть нянькой, и отстраняется от жениха. Единственным человеком, кто помогает научиться жить в новых условиях бывшему оперативнику, оказывается Даша.
Пока мать сестёр учит дочерей, как быть счастливыми и как добиваться любви, отец реально помогает Славе и Даше справиться с их непростой жизнью. Молодые переезжают к нему домой.


Возраст: 12+ (зрителям, достигшим 12 лет)
Релиз от: Files-x
Продолжительность: ~ 00:44:00 серия
Качество видео: SATRip http://sendfile.su/1297025
Видео: Xvid, 720x400, ~1542 kbps
Аудио: AC3, 2 ch, 192 kbps

МИ

Общее
Полное имя                               : D:\Загрузки uTorrent\Портрет любимого.2016.SATRip.XviD\01.Портрет любимого.2016.SATRip.XviD.avi
Формат                                   : AVI
Формат/Информация                        : Audio Video Interleave
Размер файла                             : 550 Мбайт
Продолжительность                        : 44 м. 5 с.
Общий поток                              : 1743 Кбит/сек
Программа кодирования                    : VirtualDubMod 1.5.10.3 | [url=http://www.virtualdub-fr.org]www.virtualdub-fr.org[/url] || (build 2550/release)
Библиотека кодирования                   : VirtualDubMod build 2550/release
Видео
Идентификатор                            : 0
Формат                                   : MPEG-4 Visual
Профиль формата                          : Advanced [email protected]
Параметр BVOP формата                    : 1
Параметр QPel формата                    : Нет
Параметр GMC формата                     : Без точки перехода
Параметр матрицы формата                 : Выборочная
Идентификатор кодека                     : XVID
Идентификатор кодека/Подсказка           : XviD
Продолжительность                        : 44 м. 5 с.
Битрейт                                  : 1542 Кбит/сек
Ширина                                   : 720 пикселей
Высота                                   : 400 пикселей
Соотношение сторон                       : 16:9
Частота кадров                           : 25,000 кадров/сек
Цветовое пространство                    : YUV
Субдискретизация насыщенности            : 4:2:0
Битовая глубина                          : 8 бит
Тип развёртки                            : Прогрессивная
Метод сжатия                             : С потерями
Бит/(Пиксели*Кадры)                      : 0.214
Размер потока                            : 486 Мбайт (88%)
Библиотека кодирования                   : XviD 73
Аудио
Идентификатор                            : 1
Формат                                   : AC-3
Формат/Информация                        : Audio Coding 3
Расширение режима                        : CM (complete main)
Параметр Endianness формата              : Big
Идентификатор кодека                     : 2000
Продолжительность                        : 44 м. 5 с.
Вид битрейта                             : Постоянный
Битрейт                                  : 192 Кбит/сек
Каналы                                   : 2 канала
Расположение каналов                     : Front: L R
Частота                                  : 48,0 КГц
Частота кадров                           : 31,250 кадров/сек (1536 spf)
Битовая глубина                          : 16 бит
Метод сжатия                             : С потерями
Размер потока                            : 60,6 Мбайт (11%)
Выравнивание                             : Разделение по промежуткам
Продолжительность промежутка             : 40  мс. (1,00 видеокадр)
Время предзагрузки промежутка            : 500  мс.
Скриншоты:
Яндекс.Метрика
Рейтинг@Mail.ru