Весна в декабре (Анатолий Матешко) [2011, Мелодрама, WEB-DL, 1080p-LQ] (серии 1-8 из 8)

 

Создавать темы 07-Янв-2017 12:05

- Весна в декабре (серии 1-8 из 8) - Производство: Россия, Кинокомпания УПС
Жанр: Мелодрама
Режиссер: Анатолий Матешко
Актеры: Григорий Антипенко, Екатерина Климова, Сергей Калантай, Ирина Новак, Константин Корецкий, Игорь Гнездилов, Вячеслав Николенко, Сергей Мельник, Игорь Артюшенко, Валерия Гуляева
Описание:
История о нежданной любви, которая может прийти и после тридцати. Когда жизнь давно течет по намеченному пути и бежать уже некуда, когда все, что хотелось, уже достигнуто, - что делать с этим чудом впервые испытанной большой любви, которая может повернуть вспять всю реку жизни?

Возраст: 16+ (зрителям, достигшим 16 лет)
Продолжительность: ~00:45:00 серия
Качество видео: WEB-DL
Видео: AVC/H.264, 1920X1080, ~2253 kbps
Аудио: AC3, 2 ch, 192, CBR

МИ

Общее
Уникальный идентификатор                 : 176536872512304198135785268572463735049 (0x84CFC3D0E10B8A4FB414C73BD076A109)
Полное имя                               : G:\Весна в декабре (2011)\Весна в декабре.mkv
Формат                                   : Matroska
Версия формата                           : Version 4 / Version 2
Размер файла                             : 770 Мбайт
Продолжительность                        : 43 м. 58 с.
Общий поток                              : 2447 Кбит/сек
Дата кодирования                         : UTC 2017-01-07 09:33:00
Программа кодирования                    : mkvmerge v9.7.1 ('Pandemonium') 64bit
Библиотека кодирования                   : libebml v1.3.4 + libmatroska v1.4.5 / Lavf57.25.100
Видео
Идентификатор                            : 1
Формат                                   : AVC
Формат/Информация                        : Advanced Video Codec
Профиль формата                          : [email protected]
Параметр CABAC формата                   : Да
Параметр ReFrames формата                : 3 кадра
Идентификатор кодека                     : V_MPEG4/ISO/AVC
Продолжительность                        : 43 м. 58 с.
Битрейт                                  : 2253 Кбит/сек
Ширина                                   : 1920 пикселей
Высота                                   : 1080 пикселей
Соотношение сторон                       : 16:9
Режим частоты кадров                     : Постоянный
Частота кадров                           : 25,000 кадров/сек
Цветовое пространство                    : YUV
Субдискретизация насыщенности            : 4:2:0
Битовая глубина                          : 8 бит
Тип развёртки                            : Прогрессивная
Бит/(Пиксели*Кадры)                      : 0.043
Размер потока                            : 709 Мбайт (92%)
Default                                  : Да
Forced                                   : Нет
Цветовой диапазон                        : Limited
Основные цвета                           : BT.709
Характеристики трансфера                 : BT.709
Коэффициенты матрицы                     : BT.709
Аудио
Идентификатор                            : 2
Формат                                   : AC-3
Формат/Информация                        : Audio Coding 3
Расширение режима                        : CM (complete main)
Параметр Endianness формата              : Big
Идентификатор кодека                     : A_AC3
Продолжительность                        : 43 м. 58 с.
Вид битрейта                             : Постоянный
Битрейт                                  : 192 Кбит/сек
Каналы                                   : 2 канала
Расположение каналов                     : Front: L R
Частота                                  : 44,1 КГц
Частота кадров                           : 28,711 кадров/сек (1536 spf)
Битовая глубина                          : 16 бит
Метод сжатия                             : С потерями
Задержка видео                           : -40 мс.
Размер потока                            : 60,4 Мбайт (8%)
Default                                  : Да
Forced                                   : Нет
Скриншоты:
Рейтинг@Mail.ru