Майк и Молли / Mike and Molly (Джеймс Берроуз, Фил Льюис, Майкл МакДональд) [2010-2016, Комедия, Ситком, WEB-DLRip] (сезон 1-6, серии 1-127) L1 (Кураж-Бамбей)

 

Создавать темы 07-Янв-2017 09:54

- Майк и Молли / Mike and Molly (сезон 1-6, серии 1-127 из 127)- Производство: США
Жанр: Комедия, Ситком
Режиссер: Джеймс Берроуз, Фил Льюис, Майкл МакДональд,
Актеры: Билли Гарделл, Рено Уилсон , Мелисса Маккарти, Кэти Миксон , Свузи Кёрц
Описание:
Офицер Майк Биггс — полицейский с добрым сердцем, который искренне желает сбросить вес. Напарник Майка, офицер Карл Макмиллан, худой и болтливый всезнайка, который, несмотря на поддразнивания, поддерживает Майка на его пути к стройности и любви.
Во время одного из собраний Майк встретил Молли Флинн, милую учительницу четвертого класса, которая относится к своим пышным формам со здоровым юмором. Сделать правильный выбор для Молли не всегда просто, потому что она живет со своей сексуальной старшей сестрой Викторией и матерью Джойс. Обе они выставляют напоказ свой здоровый аппетит и стройные фигуры. Майку также приходится сталкиваться с искушением в закусочной, которую он часто посещает с Карлом. Там они познакомились с сенегальским официантом Самюэлем, для которого диета — незнакомая концепция. Для Майка и Молли, благодаря их взаимной любви к пирогам и желанию сопротивляться им, знакомство друг с другом может быть ценнее «веса».


Дата мировой премьеры: 20 сентября 2010
Дата премьеры в России: 16 сентября 2013
Возраст: 16+ (зрителям, достигшим 16 лет)
Продолжительность: ~00:20:00 серия
Качество видео: WEB-DLRip
Перевод: Одноголосый закадровый, профессиональный
Озвучка / Автор перевода: Кураж-Бамбей
Видео: XviD, 624x352 (1,2 сезоны), 656x368 (3 сезон), 720x400 (4,5,6 сезон), ~1300 kbps
Аудио: MP3, 160kbps, 2ch, 48Khz (1-3 сезоны); MP3, 128Kbps, 2ch, 48Khz (4,5,6 сезон)

МИ для всех сезонов

1 сезон

Полное имя : J:\Mike and Molly\Season.01.[Kuraj-Bambey]\Mike.&.Molly.S01E01.rus.HDTVrip.[Kuraj-Bambey.Ru].avi
Формат : AVI
Формат/Информация : Audio Video Interleave
Размер файла : 172 Мбайт
Продолжительность : 20 м.
Общий поток : 1193 Кбит/сек
Библиотека кодирования : VirtualDub-MPEG2 build 24586/release
Видео
Идентификатор : 0
Формат : MPEG-4 Visual
Профиль формата : Advanced [email protected]
Параметр BVOP формата : 2
Параметр QPel формата : Нет
Параметр GMC формата : Без точки перехода
Параметр матрицы формата : Default (H.263)
Режим смешивания : Сжатый битовый поток
Идентификатор кодека : XVID
Идентификатор кодека/Подсказка : XviD
Продолжительность : 20 м.
Битрейт : 1024 Кбит/сек
Ширина : 624 пикселя
Высота : 352 пикселя
Соотношение сторон : 16:9
Частота кадров : 23,976 кадра/сек
Цветовое пространство : YUV
Субдискретизация насыщенности : 4:2:0
Битовая глубина : 8 бит
Тип развёртки : Прогрессивная
Метод сжатия : С потерями
Бит/(Пиксели*Кадры) : 0.194
Размер потока : 148 Мбайт (86%)
Библиотека кодирования : XviD 1.2.1 (UTC 2008-12-04)
Аудио
Идентификатор : 1
Формат : MPEG Audio
Версия формата : Version 1
Профиль формата : Layer 3
Идентификатор кодека : 55
Идентификатор кодека/Подсказка : MP3
Продолжительность : 20 м.
Вид битрейта : Постоянный
Битрейт : 160 Кбит/сек
Каналы : 2 канала
Частота : 48,0 КГц
Метод сжатия : С потерями
Размер потока : 23,1 Мбайт (13%)
Выравнивание : Соединение по промежуткам
Продолжительность промежутка : 42 мс. (1,00 видеокадр)
Время предзагрузки промежутка : 504 мс.

2 сезон

Полное имя : J:\Mike and Molly\Season.02.[Kuraj-Bambey]\Mike.&.Molly.S02E01.rus.HDTVrip.[Kuraj-Bambey.Ru].avi
Формат : AVI
Формат/Информация : Audio Video Interleave
Размер файла : 180 Мбайт
Продолжительность : 20 м.
Общий поток : 1228 Кбит/сек
Программа кодирования : MEncoder SVN-r33881-4.3.2
Библиотека кодирования : VirtualDub-MPEG2 build 24586/release
Видео
Идентификатор : 0
Формат : MPEG-4 Visual
Профиль формата : Advanced [email protected]
Параметр BVOP формата : 2
Параметр QPel формата : Нет
Параметр GMC формата : Без точки перехода
Параметр матрицы формата : Default (H.263)
Идентификатор кодека : XVID
Идентификатор кодека/Подсказка : XviD
Продолжительность : 20 м.
Битрейт : 1058 Кбит/сек
Ширина : 624 пикселя
Высота : 352 пикселя
Соотношение сторон : 16:9
Частота кадров : 23,976 кадра/сек
Цветовое пространство : YUV
Субдискретизация насыщенности : 4:2:0
Битовая глубина : 8 бит
Тип развёртки : Прогрессивная
Метод сжатия : С потерями
Бит/(Пиксели*Кадры) : 0.201
Размер потока : 155 Мбайт (86%)
Библиотека кодирования : XviD (For TLA Use Only)
Аудио
Идентификатор : 1
Формат : MPEG Audio
Версия формата : Version 1
Профиль формата : Layer 3
Идентификатор кодека : 55
Идентификатор кодека/Подсказка : MP3
Продолжительность : 20 м.
Вид битрейта : Постоянный
Битрейт : 160 Кбит/сек
Каналы : 2 канала
Частота : 48,0 КГц
Метод сжатия : С потерями
Размер потока : 23,4 Мбайт (13%)
Выравнивание : Соединение по промежуткам
Продолжительность промежутка : 42 мс. (1,00 видеокадр)
Время предзагрузки промежутка : 504 мс.

3 сезон

Полное имя : J:\Mike and Molly\Season.03.[Kuraj-Bambey]\Mike.and.Molly.S03E01.HDTV.Kuraj-Bambey.Rus.avi
Формат : AVI
Формат/Информация : Audio Video Interleave
Размер файла : 184 Мбайт
Продолжительность : 20 м.
Общий поток : 1245 Кбит/сек
Программа кодирования : VirtualDubMod 1.5.10.2 (build 2540/release)
Библиотека кодирования : VirtualDubMod build 2540/release
Видео
Идентификатор : 0
Формат : MPEG-4 Visual
Профиль формата : Advanced [email protected]
Параметр BVOP формата : 1
Параметр QPel формата : Нет
Параметр GMC формата : Без точки перехода
Параметр матрицы формата : Default (MPEG)
Идентификатор кодека : XVID
Идентификатор кодека/Подсказка : XviD
Продолжительность : 20 м.
Битрейт : 1076 Кбит/сек
Ширина : 656 пикселей
Высота : 368 пикселей
Соотношение сторон : 16:9
Частота кадров : 23,976 кадра/сек
Цветовое пространство : YUV
Субдискретизация насыщенности : 4:2:0
Битовая глубина : 8 бит
Тип развёртки : Прогрессивная
Метод сжатия : С потерями
Бит/(Пиксели*Кадры) : 0.186
Размер потока : 159 Мбайт (86%)
Библиотека кодирования : XviD 63
Аудио
Идентификатор : 1
Формат : MPEG Audio
Версия формата : Version 1
Профиль формата : Layer 3
Идентификатор кодека : 55
Идентификатор кодека/Подсказка : MP3
Продолжительность : 20 м.
Вид битрейта : Постоянный
Битрейт : 160 Кбит/сек
Каналы : 2 канала
Частота : 48,0 КГц
Метод сжатия : С потерями
Размер потока : 23,7 Мбайт (13%)
Выравнивание : Соединение по промежуткам
Продолжительность промежутка : 42 мс. (1,00 видеокадр)
Время предзагрузки промежутка : 504 мс.

4 сезон

Полное имя : J:\Mike and Molly\Season.04.[Kuraj-Bambey]\mike.and.molly.s04e01.web-dlrip.rus.eng.paramount.comedy.avi
Формат : AVI
Формат/Информация : Audio Video Interleave
Размер файла : 234 Мбайт
Продолжительность : 20 м.
Общий поток : 1629 Кбит/сек
Программа кодирования : VirtualDubMod 1.5.10.3 (build 2550/release)
Библиотека кодирования : VirtualDubMod build 2550/release
Видео
Идентификатор : 0
Формат : MPEG-4 Visual
Профиль формата : Advanced [email protected]
Параметр BVOP формата : 2
Параметр QPel формата : Нет
Параметр GMC формата : Без точки перехода
Параметр матрицы формата : Default (H.263)
Идентификатор кодека : XVID
Идентификатор кодека/Подсказка : XviD
Продолжительность : 20 м.
Битрейт : 1359 Кбит/сек
Ширина : 720 пикселей
Высота : 400 пикселей
Соотношение сторон : 16:9
Частота кадров : 23,976 кадра/сек
Цветовое пространство : YUV
Субдискретизация насыщенности : 4:2:0
Битовая глубина : 8 бит
Тип развёртки : Прогрессивная
Метод сжатия : С потерями
Бит/(Пиксели*Кадры) : 0.197
Размер потока : 195 Мбайт (83%)
Библиотека кодирования : XviD 64
Аудио #1
Идентификатор : 1
Формат : MPEG Audio
Версия формата : Version 1
Профиль формата : Layer 3
Режим : Joint stereo
Расширение режима : MS Stereo
Идентификатор кодека : 55
Идентификатор кодека/Подсказка : MP3
Продолжительность : 20 м.
Вид битрейта : Постоянный
Битрейт : 128 Кбит/сек
Каналы : 2 канала
Частота : 48,0 КГц
Метод сжатия : С потерями
Размер потока : 18,4 Мбайт (8%)
Выравнивание : Соединение по промежуткам
Продолжительность промежутка : 42 мс. (1,00 видеокадр)
Время предзагрузки промежутка : 504 мс.
Библиотека кодирования : LAME3.99r
Настройки программы : -m j -V 4 -q 3 -lowpass 17 -b 128

5 сезон

Полное имя : G:\Mike and Molly\Season.05.[Kuraj-Bambey]\S05E01.avi
Формат : AVI
Формат/Информация : Audio Video Interleave
Размер файла : 209 Мбайт
Продолжительность : 19 м.
Общий поток : 1513 Кбит/сек
Библиотека кодирования : VirtualDub build 27700/release
Видео
Идентификатор : 0
Формат : MPEG-4 Visual
Профиль формата : Advanced [email protected]
Параметр BVOP формата : 2
Параметр QPel формата : Нет
Параметр GMC формата : Без точки перехода
Параметр матрицы формата : Default (H.263)
Режим смешивания : Сжатый битовый поток
Идентификатор кодека : XVID
Идентификатор кодека/Подсказка : XviD
Продолжительность : 19 м.
Битрейт : 1375 Кбит/сек
Ширина : 720 пикселей
Высота : 400 пикселей
Соотношение сторон : 16:9
Частота кадров : 23,976 кадра/сек
Цветовое пространство : YUV
Субдискретизация насыщенности : 4:2:0
Битовая глубина : 8 бит
Тип развёртки : Прогрессивная
Метод сжатия : С потерями
Бит/(Пиксели*Кадры) : 0.199
Размер потока : 190 Мбайт (91%)
Библиотека кодирования : XviD 73
Аудио
Идентификатор : 1
Формат : MPEG Audio
Версия формата : Version 1
Профиль формата : Layer 3
Режим : Joint stereo
Расширение режима : MS Stereo
Идентификатор кодека : 55
Идентификатор кодека/Подсказка : MP3
Продолжительность : 19 м.
Вид битрейта : Постоянный
Битрейт : 128 Кбит/сек
Каналы : 2 канала
Частота : 48,0 КГц
Метод сжатия : С потерями
Размер потока : 17,7 Мбайт (8%)
Выравнивание : Разделение по промежуткам
Продолжительность промежутка : 42 мс. (1,00 видеокадр)
Время предзагрузки промежутка : 500 мс.
Скриншоты:
Рейтинг@Mail.ru