Чудо в Крыму (Виталий Павлов) [2015, Комедия, HDTVRip]

 

Создавать темы 07-Янв-2017 09:48

- Чудо в Крыму - Производство: Россия
Жанр: Комедия
Режиссер: Виталий Павлов
Актеры: Михаил Пореченков, Ирина Гринёва, Михаил Дитковский
Описание:
Перед Новым годом в Симферополе встречаются простой водитель и звезда кино. Мария и Дмитрий проводят вместе два дня, и их жизнь меняется.

Возраст: 12+ (зрителям, достигшим 12 лет)
Продолжительность: 01:28:52
Качество видео: HDTVRip http://sendfile.su/1296910
Видео: Xvid, 720x400, ~1997 kbps
Аудио: AC3, 2 ch, 192 kbps

МИ

Общее
Полное имя                               : D:\Загрузки uTorrent\Чудо в Крыму.2015.HDTVRip.XviD.avi
Формат                                   : AVI
Формат/Информация                        : Audio Video Interleave
Размер файла                             : 1,36 Гбайт
Продолжительность                        : 1 ч. 28 м.
Общий поток                              : 2199 Кбит/сек
Программа кодирования                    : VirtualDubMod 1.5.10.2 (build 2540/release)
Библиотека кодирования                   : VirtualDubMod build 2540/release
Видео
Идентификатор                            : 0
Формат                                   : MPEG-4 Visual
Профиль формата                          : Advanced [email protected]
Параметр BVOP формата                    : 2
Параметр QPel формата                    : Нет
Параметр GMC формата                     : Без точки перехода
Параметр матрицы формата                 : Default (MPEG)
Идентификатор кодека                     : XVID
Идентификатор кодека/Подсказка           : XviD
Продолжительность                        : 1 ч. 28 м.
Битрейт                                  : 1997 Кбит/сек
Ширина                                   : 720 пикселей
Высота                                   : 400 пикселей
Соотношение сторон                       : 16:9
Частота кадров                           : 25,000 кадров/сек
Цветовое пространство                    : YUV
Субдискретизация насыщенности            : 4:2:0
Битовая глубина                          : 8 бит
Тип развёртки                            : Прогрессивная
Метод сжатия                             : С потерями
Бит/(Пиксели*Кадры)                      : 0.277
Размер потока                            : 1,24 Гбайт (91%)
Библиотека кодирования                   : XviD 1.2.1 (UTC 2008-12-04)
Аудио
Идентификатор                            : 1
Формат                                   : AC-3
Формат/Информация                        : Audio Coding 3
Расширение режима                        : CM (complete main)
Параметр Endianness формата              : Big
Идентификатор кодека                     : 2000
Продолжительность                        : 1 ч. 28 м.
Вид битрейта                             : Постоянный
Битрейт                                  : 192 Кбит/сек
Каналы                                   : 2 канала
Расположение каналов                     : Front: L R
Частота                                  : 48,0 КГц
Частота кадров                           : 31,250 кадров/сек (1536 spf)
Битовая глубина                          : 16 бит
Метод сжатия                             : С потерями
Размер потока                            : 122 Мбайт (9%)
Выравнивание                             : Разделение по промежуткам
Продолжительность промежутка             : 40  мс. (1,00 видеокадр)
Время предзагрузки промежутка            : 500  мс.
Скриншоты:
Рейтинг@Mail.ru