Гадание при свечах (Вадим Дербенёв) [2010, фантастика, мелодрама, WEB-DL, 720p-LQ] (серии 1-16 из 16)

 

Создавать темы 07-Янв-2017 09:44

- Гадание при свечах (серии 1-16 из 16) - Производство: Россия / ООО «Медиа Фаворит Фильм» по заказу ФГУП «ВГТРК»
Жанр: фантастика, мелодрама
Режиссер: Вадим Дербенёв
Актеры: Татьяна Казючиц, Антон Феоктистов, Анатолий Лобоцкий, Анна Большова, Владимир Гостюхин, Эдуард Трухменев, Владимир Новиков, Александр Леньков, Наталья Гудкова, Ольга Бурлакова и др.
Описание:
Современная мелодрама с элементами мистики. Вечно актуальная история Золушки - бедной провинциалки, попавшей в богатую и звездную Москву. Однако главная героиня фильма, медсестра Марина Стенич, - Золушка не совсем обычная, она обладает сильным характером и необычными экстрасенсорными способностями, поэтому и история обретения ею принца и счастья с ним оказывается нетривиальной.

Возраст: 16+ (зрителям, достигшим 16 лет)
Продолжительность: ~00:44:00 серия
Качество видео: WEB-DL
Видео: AVC/H.264, 1280x720 (16:9), ~2074 kbps
Аудио: AC3, 2 ch, 192 kbps, CBR

МИ

Общее
Уникальный идентификатор                 : 243463628359935892403621775554259948289 (0xB72963A41A4273BAA71FAB12189B9301)
Полное имя                               : G:\Гадание при свечах (2010)\Гадание при свечах.mkv
Формат                                   : Matroska
Версия формата                           : Version 4 / Version 2
Размер файла                             : 714 Мбайт
Продолжительность                        : 44 м. 0 с.
Общий поток                              : 2268 Кбит/сек
Дата кодирования                         : UTC 2017-01-06 08:47:24
Программа кодирования                    : mkvmerge v9.7.1 ('Pandemonium') 64bit
Библиотека кодирования                   : libebml v1.3.4 + libmatroska v1.4.5 / Lavf57.25.100
Видео
Идентификатор                            : 1
Формат                                   : AVC
Формат/Информация                        : Advanced Video Codec
Профиль формата                          : [url=mailto:[email protected]][email protected][/url]
Параметр CABAC формата                   : Да
Параметр ReFrames формата                : 3 кадра
Идентификатор кодека                     : V_MPEG4/ISO/AVC
Продолжительность                        : 44 м. 0 с.
Битрейт                                  : 2074 Кбит/сек
Ширина                                   : 1280 пикселей
Высота                                   : 720 пикселей
Соотношение сторон                       : 16:9
Режим частоты кадров                     : Постоянный
Частота кадров                           : 25,000 кадров/сек
Цветовое пространство                    : YUV
Субдискретизация насыщенности            : 4:2:0
Битовая глубина                          : 8 бит
Тип развёртки                            : Прогрессивная
Бит/(Пиксели*Кадры)                      : 0.090
Размер потока                            : 653 Мбайт (91%)
Default                                  : Да
Forced                                   : Нет
Цветовой диапазон                        : Limited
Основные цвета                           : BT.709
Характеристики трансфера                 : BT.709
Коэффициенты матрицы                     : BT.709
Аудио
Идентификатор                            : 2
Формат                                   : AC-3
Формат/Информация                        : Audio Coding 3
Расширение режима                        : CM (complete main)
Параметр Endianness формата              : Big
Идентификатор кодека                     : A_AC3
Продолжительность                        : 44 м. 0 с.
Вид битрейта                             : Постоянный
Битрейт                                  : 192 Кбит/сек
Каналы                                   : 2 канала
Расположение каналов                     : Front: L R
Частота                                  : 44,1 КГц
Частота кадров                           : 28,711 кадров/сек (1536 spf)
Битовая глубина                          : 16 бит
Метод сжатия                             : С потерями
Задержка видео                           : -40 мс.
Размер потока                            : 60,4 Мбайт (8%)
Default                                  : Да
Forced                                   : Нет
Скриншоты:
Рейтинг@Mail.ru