13-й район / Banlieue 13 [Дилогия / Dilogy] (Пьер Морель / Pierre Morel, Патрик Алессандрен / Patrick Alessandrin) [2004 - 2009, Боевик, Криминал, BDRip, 1080p]

 

Создавать темы 06-Янв-2017 10:51

- 13-й район / Banlieue 13 - Производство: Франция
Жанр: Боевик, Криминал
Режиссер: Пьер Морель
Актеры: Дэвид Белль, Сирил Раффаэлли, Тони Д’Амарио, Биби Насери, Дани Вериссимо, Франсуа Шатто, Николас Войрион, Патрик Оливье, Самир Гесми, Тарик Бусехин
Описание:
2010 год, Париж, из-за разгула преступности некоторые особо опасные районы французской столицы превращены в закрытые зоны и отгорожены от благополучных кварталов бетонной стеной. За ней бурлит совсем другая жизнь: здесь процветает торговля наркотиками и оружием, здесь даже дети не выходят из дома без оружия, здесь давно не работают школы и поликлиники, здесь полиция не стоит на страже закона, а лишь защищает себя или же сама поддерживает беззаконие. Главарю одной из банд удается завладеть нейтронной бомбой. Чтобы обезвредить ее, в 13-й район отправляется офицер спецназ Дамьен. Проникать в опасные зоны его профессия, однако на этот раз ему все-таки нужен проводник. Союзником Дамьена становится Лейто, отчаянный парень, сестра которого похищена тем же самым главарем…


Возраст: 16+ (зрителям, достигшим 16 лет)
Рейтинг MPAA: R (лицам до 17 лет обязательно присутствие взрослого)
Релиз от: Torrent King (Alex)
Продолжительность: 01:24:30
Качество видео: BDRip 1080p
Перевод: Дублированный
Видео: AVC/H.264, 1920x800, ~7100 kbps
Аудио: AC3, 6 ch, 448 kbps, CBR

МИ

General
Unique ID                   : 235670646451445640632449232175340975345 (0xB14C83F7E63AD2AC8F8541D16CBFF4F1)
Complete name               : D:\Загрузки\13-й район (2004 - 2009) BDRip [1080p] Дилогия\13-й район (2004).mkv
Format                      : Matroska
Format version              : Version 4 / Version 2
File size                   : 4.36 GiB
Duration                    : 1 h 24 min
Overall bit rate            : 7 381 kb/s
Movie name                  : 13-й район (2004)
Encoded date                : UTC 2017-01-05 16:46:53
Writing application         : mkvmerge v7.9.0 ('Birds') 64bit
Writing library             : libebml v1.3.1 + libmatroska v1.4.2
Attachments                 : poster.jpg
Video
ID                          : 1
Format                      : AVC
Format/Info                 : Advanced Video Codec
Format profile              : [url=mailto:[email protected]][email protected][/url]
Format settings, CABAC      : Yes
Format settings, ReFrames   : 4 frames
Codec ID                    : V_MPEG4/ISO/AVC
Duration                    : 1 h 24 min
Bit rate                    : 7 100 kb/s
Width                       : 1 920 pixels
Height                      : 800 pixels
Display aspect ratio        : 2.40:1
Frame rate mode             : Constant
Frame rate                  : 24.000 FPS
Color space                 : YUV
Chroma subsampling          : 4:2:0
Bit depth                   : 8 bits
Scan type                   : Progressive
Bits/(Pixel*Frame)          : 0.193
Stream size                 : 4.09 GiB (94%)
Title                       : 13-й район -Alex-
Writing library             : x264 core 148 r2744M b97ae06
Encoding settings           : cabac=1 / ref=3 / deblock=1:-2:-2 / analyse=0x3:0x113 / me=hex / subme=7 / psy=1 / psy_rd=1.00:0.20 / mixed_ref=1 / me_range=16 / chroma_me=1 / trellis=1 / 8x8dct=1 / cqm=0 / deadzone=21,11 / fast_pskip=1 / chroma_qp_offset=-3 / threads=7 / lookahead_threads=3 / sliced_threads=0 / nr=0 / decimate=1 / interlaced=0 / bluray_compat=0 / constrained_intra=0 / bframes=12 / b_pyramid=2 / b_adapt=2 / b_bias=0 / direct=3 / weightb=1 / open_gop=0 / weightp=2 / keyint=240 / keyint_min=24 / scenecut=40 / intra_refresh=0 / rc_lookahead=40 / rc=abr / mbtree=1 / bitrate=7100 / ratetol=1.0 / qcomp=0.60 / qpmin=0 / qpmax=69 / qpstep=4 / ip_ratio=1.40 / aq=1:1.00
Language                    : English
Default                     : Yes
Forced                      : No
Audio
ID                          : 2
Format                      : AC-3
Format/Info                 : Audio Coding 3
Mode extension              : CM (complete main)
Format settings, Endianness : Big
Codec ID                    : A_AC3
Duration                    : 1 h 24 min
Bit rate mode               : Constant
Bit rate                    : 448 kb/s
Channel(s)                  : 6 channels
Channel positions           : Front: L C R, Side: L R, LFE
Sampling rate               : 48.0 kHz
Frame rate                  : 31.250 FPS (1536 spf)
Bit depth                   : 16 bits
Compression mode            : Lossy
Stream size                 : 271 MiB (6%)
Title                       : Дублированный
Language                    : Russian
Default                     : Yes
Forced                      : Yes
Скриншоты:
- 13-й район: Ультиматум / Banlieue 13: Ultimatum - Производство: Франция
Жанр: Боевик, Криминал
Режиссер: Патрик Алессандрен
Актеры: Дэвид Белль, Сирил Раффаэлли, Филипп Торретон, Даниэль Дюваль, Элоди Юнг, МС Жан Габен, Джеймс Диано, Лауни Муид, Фабрис Флетцингер, Пьер-Мари Москони
Описание:
13-й район, три года спустя. Стена, отделяющая неблагополучный пригород от столицы, стала больше, выше и отгородила от цивилизации еще больше кварталов. По эту сторону стены правят пять банд, контролирующих этнические районы. Правительство как никогда заинтересовано в «урегулировании проблемы», и разведывательные службы охотно инициируют беспорядки. Лейто и Дамьену снова приходится объединить усилия, чтобы спасти Париж от хаоса.

Возраст: 16+ (зрителям, достигшим 16 лет)
Рейтинг MPAA: R (лицам до 17 лет обязательно присутствие взрослого)
Релиз от: Torrent King (Alex)
Продолжительность: 01:40:57
Качество видео: BDRip 1080p
Перевод: Дублированный
Видео: AVC/H.264, 1920x816, ~5800 kbps
Аудио: AC3, 6 ch, 448 kbps, CBR

МИ

General
Unique ID                   : 248444648944784717279261675415537662824 (0xBAE8B2EA9F54F174BC272781F1AF3B68)
Complete name               : D:\Загрузки\13-й район (2004 - 2009) BDRip [1080p] Дилогия\13-й район. Ультиматум (2009).mkv
Format                      : Matroska
Format version              : Version 4 / Version 2
File size                   : 4.35 GiB
Duration                    : 1 h 40 min
Overall bit rate            : 6 174 kb/s
Movie name                  : 13-й район. Ультиматум (2009)
Encoded date                : UTC 2017-01-02 05:17:46
Writing application         : mkvmerge v7.9.0 ('Birds') 64bit
Writing library             : libebml v1.3.1 + libmatroska v1.4.2
Attachments                 : poster.jpg
Video
ID                          : 1
Format                      : AVC
Format/Info                 : Advanced Video Codec
Format profile              : [url=mailto:[email protected]][email protected][/url]
Format settings, CABAC      : Yes
Format settings, ReFrames   : 4 frames
Codec ID                    : V_MPEG4/ISO/AVC
Duration                    : 1 h 40 min
Bit rate                    : 5 800 kb/s
Width                       : 1 920 pixels
Height                      : 816 pixels
Display aspect ratio        : 2.35:1
Frame rate mode             : Constant
Frame rate                  : 24.000 FPS
Color space                 : YUV
Chroma subsampling          : 4:2:0
Bit depth                   : 8 bits
Scan type                   : Progressive
Bits/(Pixel*Frame)          : 0.154
Stream size                 : 4.04 GiB (93%)
Title                       : 13-й район. Ультиматум -Alex-
Writing library             : x264 core 148 r2744M b97ae06
Encoding settings           : cabac=1 / ref=3 / deblock=1:-2:-2 / analyse=0x3:0x113 / me=hex / subme=7 / psy=1 / psy_rd=1.00:0.20 / mixed_ref=1 / me_range=16 / chroma_me=1 / trellis=1 / 8x8dct=1 / cqm=0 / deadzone=21,11 / fast_pskip=1 / chroma_qp_offset=-3 / threads=7 / lookahead_threads=3 / sliced_threads=0 / nr=0 / decimate=1 / interlaced=0 / bluray_compat=0 / constrained_intra=0 / bframes=12 / b_pyramid=2 / b_adapt=2 / b_bias=0 / direct=3 / weightb=1 / open_gop=0 / weightp=2 / keyint=240 / keyint_min=24 / scenecut=40 / intra_refresh=0 / rc_lookahead=40 / rc=abr / mbtree=1 / bitrate=5800 / ratetol=1.0 / qcomp=0.60 / qpmin=0 / qpmax=69 / qpstep=4 / ip_ratio=1.40 / aq=1:1.00
Language                    : French
Default                     : Yes
Forced                      : No
Audio
ID                          : 2
Format                      : AC-3
Format/Info                 : Audio Coding 3
Mode extension              : CM (complete main)
Format settings, Endianness : Big
Codec ID                    : A_AC3
Duration                    : 1 h 40 min
Bit rate mode               : Constant
Bit rate                    : 448 kb/s
Channel(s)                  : 6 channels
Channel positions           : Front: L C R, Side: L R, LFE
Sampling rate               : 48.0 kHz
Frame rate                  : 31.250 FPS (1536 spf)
Bit depth                   : 16 bits
Compression mode            : Lossy
Stream size                 : 323 MiB (7%)
Title                       : Дублированный
Language                    : Russian
Default                     : Yes
Forced                      : Yes
Скриншоты:
Рейтинг@Mail.ru