Deep Purple - California Jam (1974/2016, Rock, Hard Rock, Prog Rock, Blu-ray, 1080i)

 

Создавать темы 06-Янв-2017 10:42

- Deep Purple - California Jam - Производство: Германия | earMUSIC, a project of Edel Germany GmbH
Жанр: Rock, Hard Rock, Prog Rock
Исполнитель: David Coverdale - vocals; Ritchie Blackmore - guitar; Glenn Hughes - bass and vocals; Jon Lord - organ; Ian Paice - drums
Описание:
Этот концерт Deep Purple уникален во многих смыслах. Во-первых, тот состав группы, так называемый Mark 3, является одним из самых спорных и неоднозначных. Любители "чистого" DP считают замену Гловера и Гиллана на Хьюза и Ковердейла неравноценной. Во-вторых, это выступление являтся наибольшей аудиторией для DP, музыкальный фестиваль California Jam посетило около 200 тысяч человек. И, в-третьих, концерт завершился грандиозным скандалом.

Продолжительность: 01:25:26, 01:25:18, 00:10:19
Качество видео: Blu-ray
Перевод: Отсутствует
Язык: Английский
Видео: MPEG-4 AVC, ~15,00 Mbps, (16:9), 1920x1080i, 29,970 fps, High Profile 4.1
Аудио #1: DTS-HD MA 2.0 ch , 1159 kbps, 48 kHz / 1159 kbps / 16-bit (DTS Core: 2.0 / 48 kHz / 768 kbps / 16-bit
Аудио #2: DTS-HD MA 2.0 ch , 1168 kbps, 48 kHz / 1168 kbps / 16-bit (DTS Core: 2.0 / 48 kHz / 768 kbps / 16-bit

Треклист:

01. Burn
02. Might Just Take Your Life
03. Lay Down, Stay Down
04. Mistreated
05. Smoke on the Water
06. You Fool No One / The Mule
07. Space Truckin'
Дополнительно:
• Original Video Edit (Full Show)
• Original Video Edit (Full Show with audio commentaries)
• Super 8 Crew Recording

МИ

Формат                                   : BDAV
Формат/Информация                        : Blu-ray Video
Размер файла                             : 11,0 Гбайт
Продолжительность                        : 1 ч. 25 м.
Режим общего битрейта                    : Переменный
Общий поток                              : 18,5 Мбит/сек
Максимальный общий битрейт               : 48,0 Мбит/сек
Видео
Идентификатор                            : 4113 (0x1011)
Идентификатор меню                       : 1 (0x1)
Формат                                   : AVC
Формат/Информация                        : Advanced Video Codec
Профиль формата                          : [url=mailto:[email protected]][email protected][/url]
Параметр CABAC формата                   : Да
Параметр ReFrames формата                : 4 кадра
Идентификатор кодека                     : 27
Продолжительность                        : 1 ч. 25 м.
Вид битрейта                             : Переменный
Максимальный битрейт                     : 30,0 Мбит/сек
Ширина                                   : 1920 пикселей
Высота                                   : 1080 пикселей
Соотношение сторон                       : 16:9
Частота кадров                           : 29,970 (30000/1001) кадров/сек
Стандарт вещания                         : NTSC
Цветовое пространство                    : YUV
Субдискретизация насыщенности            : 4:2:0
Битовая глубина                          : 8 бит
Тип развёртки                            : MBAFF
Метод сохранения типа развёртки          : Чередующиеся поля
Порядок развёртки                        : Верхнее поле первое
Цветовой диапазон                        : Limited
Основные цвета                           : BT.709
Характеристики трансфера                 : BT.709
Коэффициенты матрицы                     : BT.709
Аудио #1
Идентификатор                            : 4352 (0x1100)
Идентификатор меню                       : 1 (0x1)
Формат                                   : DTS
Формат/Информация                        : Digital Theater Systems
Профиль формата                          : MA / Core
Режим                                    : 16
Параметр Endianness формата              : Big
Режим смешивания                         : Stream extension
Идентификатор кодека                     : 134
Продолжительность                        : 1 ч. 25 м.
Вид битрейта                             : Переменный / Постоянный
Битрейт                                  : Неизвестно / 768 Кбит/сек
Каналы                                   : 2 канала
Расположение каналов                     : Front: L R
Частота                                  : 48,0 КГц
Частота кадров                           : 93,750 кадра/сек (512 spf)
Битовая глубина                          : 16 бит
Метод сжатия                             : Без потерь / Lossy
Аудио #2
Идентификатор                            : 4353 (0x1101)
Идентификатор меню                       : 1 (0x1)
Формат                                   : DTS
Формат/Информация                        : Digital Theater Systems
Профиль формата                          : MA / Core
Режим                                    : 16
Параметр Endianness формата              : Big
Режим смешивания                         : Stream extension
Идентификатор кодека                     : 134
Продолжительность                        : 1 ч. 25 м.
Вид битрейта                             : Переменный / Постоянный
Битрейт                                  : Неизвестно / 768 Кбит/сек
Каналы                                   : 2 канала
Расположение каналов                     : Front: L R
Частота                                  : 48,0 КГц
Частота кадров                           : 93,750 кадра/сек (512 spf)
Битовая глубина                          : 16 бит
Метод сжатия                             : Без потерь / Lossy

BDInfo Report:

DISC INFO:
Disc Title:     Deep Purple.California Jam 1974.2016.BD1080i
Disc Size:      24 667 892 671 bytes
Protection:     AACS
BD-Java:        No
BDInfo:         0.5.8
PLAYLIST REPORT:
Name:                   01005.MPLS
Length:                 1:25:26.688 (h:m:s.ms)
Size:                   10 960 158 720 bytes
Total Bitrate:          17,10 Mbps
VIDEO:
Codec                   Bitrate             Description
-----                   -------             -----------
MPEG-4 AVC Video        14999 kbps          1080i / 29,970 fps / 16:9 / High Profile 4.1
AUDIO:
Codec                           Language        Bitrate         Description
-----                           --------        -------         -----------
DTS-HD Master Audio             English         1159 kbps       2.0 / 48 kHz / 1159 kbps / 16-bit (DTS Core: 2.0 / 48 kHz / 768 kbps / 16-bit / DN -4dB)
FILES:
Name            Time In         Length          Size            Total Bitrate
----            -------         ------          ----            -------------
00005.M2TS      0:00:00.000     1:25:26.354     10 960 146 432  17 104
00008.M2TS      1:25:26.354     0:00:00.333     12 288          295
PLAYLIST REPORT:
Name:                   01006.MPLS
Length:                 1:25:18.213 (h:m:s.ms)
Size:                   11 811 778 560 bytes
Total Bitrate:          18,46 Mbps
VIDEO:
Codec                   Bitrate             Description
-----                   -------             -----------
MPEG-4 AVC Video        14999 kbps          1080i / 29,970 fps / 16:9 / High Profile 4.1
AUDIO:
Codec                           Language        Bitrate         Description
-----                           --------        -------         -----------
DTS-HD Master Audio             English         1155 kbps       2.0 / 48 kHz / 1155 kbps / 16-bit (DTS Core: 2.0 / 48 kHz / 768 kbps / 16-bit / DN -4dB)
DTS-HD Master Audio             English         1168 kbps       2.0 / 48 kHz / 1168 kbps / 16-bit (DTS Core: 2.0 / 48 kHz / 768 kbps / 16-bit / DN -4dB)
FILES:
Name            Time In         Length          Size            Total Bitrate
----            -------         ------          ----            -------------
00006.M2TS      0:00:00.000     1:25:17.879     11 811 766 272  18 464
00008.M2TS      1:25:17.879     0:00:00.333     12 288          295
PLAYLIST REPORT:
Name:                   01007.MPLS
Length:                 0:10:19.085 (h:m:s.ms)
Size:                   1 315 553 280 bytes
Total Bitrate:          17,00 Mbps
VIDEO:
Codec                   Bitrate             Description
-----                   -------             -----------
MPEG-4 AVC Video        14990 kbps          1080i / 29,970 fps / 16:9 / High Profile 4.1
AUDIO:
Codec                           Language        Bitrate         Description
-----                           --------        -------         -----------
DTS-HD Master Audio             English         1078 kbps       2.0 / 48 kHz / 1078 kbps / 16-bit (DTS Core: 2.0 / 48 kHz / 768 kbps / 16-bit / DN -4dB)
FILES:
Name            Time In         Length          Size            Total Bitrate
----            -------         ------          ----            -------------
00007.M2TS      0:00:00.000     0:10:18.751     1 315 540 992   17 009
00008.M2TS      0:10:18.751     0:00:00.333     12 288          295
Скриншоты:

Создавать темы 06-Янв-2017 11:40 (спустя 58 минут)

Геннадич, Спасибо большое,очень редкий концерт,да ещё и в таком качестве!

Создавать темы 06-Янв-2017 11:46 (спустя 5 минут)

dybrik13, спасибо за спасибо :)
Рейтинг@Mail.ru