Виннету. Новый свет / Winnetou - Eine neue Welt (Филипп Штёльцль / Philipp Stölzl) [2016, Вестерн, BDRip, 1080p] MVO

 

Создавать темы 05-Янв-2017 21:01

Виннету. Новый свет / Winnetou - Eine neue Welt -- Год выпуска: 2016
Жанр: Вестерн
Выпущено: Германия, Aventin Film, Rat Pack Filmproduktion GmbH, Rialto Film
Режиссер: Филипп Штёльцль
В ролях: Ник Хэлилай, Вотан Вильке Мёринг, Юрген Фогель, Милан Пешель, Иазуа Лариос, Райнер Бок, Гойко Митич, Оливер Мазуччи, Лесли Молтон, Марио Адорф
О фильме:
Трилогия о вожде племени апачей Виннету, снятая по приключенческим романам Карла Мая. В первой части, "Виннету - Новый свет", рассказывается о том, как молодой инженер Карл Май приезжает в Америку и начинает работать на железнодорожную компанию на Диком Западе. При драматических обстоятельствах он знакомится с вождем апачей Виннету и становится другом ему и его племени. Апачи дают ему имя Олд Шаттерхенд. Вместе они сражаются против бессовестного рабочего компании, которая хочет проложить железную дорогу по земле апачей. Во второй части, "Виннету - Тайна Серебряного озера", сестру Виннету Нчо-Чи похищают жестокие разбойники, которые хотят найти мистическое сокровище апачей. В третьей части, "Виннету - Последнее сражение", бандит Сантер младший пытается завладеть нефтяным источником на земле апачей. Чтобы этого избежать, Виннету и Олд Шаттерхенду приходится примирить два враждующий племени, чтобы они вместе могли бороться с бандитами.

Качество: BDRip (1080p)
Формат: MKV
Видео: MPEG-4 AVC, 10.8 Мбит/с, 1920x802
Аудио: Русский (AC3, 2 ch, 640 Кбит/с)
Продолжительность: 01:57:55
Перевод: Профессиональный многоголосый

МИ

Уникальный идентификатор : 194917149927132626275226007109591499863 (0x92A3AD755A97E640AB4C46785B960457)
Полное имя : WinnetU.Tale_01_2O16.P.BDRip.1O8Op.mkv
Формат : Matroska
Версия формата : Version 2
Размер файла : 9,39 Гбайт
Продолжительность : 1 ч. 57 м.
Режим общего битрейта : Переменный
Общий поток : 11,4 Мбит/сек
Дата кодирования : UTC 2017-01-04 17:10:47
Программа кодирования : mkvmerge v8.3.0 ('Over the Horizon') 64bit
Библиотека кодирования : libebml v1.3.1 + libmatroska v1.4.2
Видео
Идентификатор : 1
Формат : AVC
Формат/Информация : Advanced Video Codec
Профиль формата : [email protected]
Параметр CABAC формата : Да
Параметр ReFrames формата : 5 кадров
Идентификатор кодека : V_MPEG4/ISO/AVC
Продолжительность : 1 ч. 57 м.
Вид битрейта : Переменный
Битрейт : 10,8 Мбит/сек
Максимальный битрейт : 11,5 Мбит/сек
Ширина : 1920 пикселей
Высота : 802 пикселя
Соотношение сторон : 2,40:1
Режим частоты кадров : Постоянный
Частота кадров : 25,000 кадров/сек
Стандарт вещания : Component
Цветовое пространство : YUV
Субдискретизация насыщенности : 4:2:0
Битовая глубина : 8 бит
Тип развёртки : Прогрессивная
Бит/(Пиксели*Кадры) : 0.279
Размер потока : 8,86 Гбайт (94%)
Default : Да
Forced : Нет
Цветовой диапазон : Limited
Основные цвета : BT.709
Характеристики трансфера : BT.709
Коэффициенты матрицы : BT.709
Аудио
Идентификатор : 2
Формат : AC-3
Формат/Информация : Audio Coding 3
Расширение режима : CM (complete main)
Параметр Endianness формата : Big
Идентификатор кодека : A_AC3
Продолжительность : 1 ч. 57 м.
Вид битрейта : Постоянный
Битрейт : 640 Кбит/сек
Каналы : 2 канала
Расположение каналов : Front: L R
Частота : 48,0 КГц
Частота кадров : 31,250 кадров/сек (1536 spf)
Битовая глубина : 16 бит
Метод сжатия : С потерями
Размер потока : 540 Мбайт (6%)
Default : Да
Forced : Нет
Скриншоты
Рейтинг@Mail.ru