Виннету. Последний бой / Winnetou - Der letzte Kampf (Филипп Штёльцль / Philipp Stölzl) [2016, Вестерн, HDRip] L (@[email protected])

 

Создавать темы 05-Янв-2017 20:52

Виннету. Последний бой / Winnetou - Der letzte Kampf-- Страна: Германия
Режиссер: Филипп Штёльцль
Жанр: Вестерн
Год: 2016-- В ролях:
Ник Хэлилай, Вотан Вильке Мёринг, Юрген Фогель, Милан Пешель, Иазуа Лариос, Райнер Бок, Гойко Митич, Оливер Мазуччи, Лесли Молтон, Марио Адорф.
Описание:
Трилогия о вожде племени апачей Виннету, снятая по приключенческим романам Карла Мая. В первой части, "Виннету - Новый свет", рассказывается о том, как молодой инженер Карл Май приезжает в Америку и начинает работать на железнодорожную компанию на Диком Западе. При драматических обстоятельствах он знакомится с вождем апачей Виннету и становится другом ему и его племени. Апачи дают ему имя Олд Шаттерхенд. Вместе они сражаются против бессовестного рабочего компании, которая хочет проложить железную дорогу по земле апачей. Во второй части, "Виннету - Тайна Серебряного озера", сестру Виннету Нчо-Чи похищают жестокие разбойники, которые хотят найти мистическое сокровище апачей. В третьей части, "Виннету - Последнее сражение", бандит Сантер младший пытается завладеть нефтяным источником на земле апачей. Чтобы этого избежать, Виннету и Олд Шаттерхенду приходится примирить два враждующий племени, чтобы они вместе могли бороться с бандитами.--
Продолжительность: 02:04:04
Качество: HDRip
Формат: AVI
Видео: 720x304 (2.37:1), 25 fps, XviD build 50 ~1913 kbps avg, 0.35 bit/pixel
Аудио: 48 kHz, AC3 Dolby Digital, 2/0 (L,R) ch, ~448 kbps
Перевод: Любительский (многоголосый, закадровый) [@[email protected]]

МИ

Общее
Полное имя                               : E:\Торренты\WinnetU.Tale_03_2O16.P.HDRip.21OOMB.avi
Формат                                   : AVI
Формат/Информация                        : Audio Video Interleave
Профиль формата                          : OpenDML
Размер файла                             : 2,05 Гбайт
Продолжительность                        : 2 ч. 4 м.
Общий поток                              : 2369 Кбит/сек
Программа кодирования                    : VirtualDubMod 1.5.10.2 (build 2540/release)
Библиотека кодирования                   : VirtualDubMod build 2540/release
Видео
Идентификатор                            : 0
Формат                                   : MPEG-4 Visual
Профиль формата                          : Advanced [email protected]
Параметр BVOP формата                    : 2
Параметр QPel формата                    : Нет
Параметр GMC формата                     : Без точки перехода
Параметр матрицы формата                 : Default (MPEG)
Идентификатор кодека                     : XVID
Идентификатор кодека/Подсказка           : XviD
Продолжительность                        : 2 ч. 4 м.
Битрейт                                  : 1908 Кбит/сек
Ширина                                   : 720 пикселей
Высота                                   : 304 пикселя
Соотношение сторон                       : 2,35:1
Частота кадров                           : 25,000 кадров/сек
Цветовое пространство                    : YUV
Субдискретизация насыщенности            : 4:2:0
Битовая глубина                          : 8 бит
Тип развёртки                            : Прогрессивная
Метод сжатия                             : С потерями
Бит/(Пиксели*Кадры)                      : 0.349
Размер потока                            : 1,65 Гбайт (81%)
Библиотека кодирования                   : XviD 1.2.1 (UTC 2008-12-04)
Аудио
Идентификатор                            : 1
Формат                                   : AC-3
Формат/Информация                        : Audio Coding 3
Расширение режима                        : CM (complete main)
Параметр Endianness формата              : Big
Идентификатор кодека                     : 2000
Продолжительность                        : 2 ч. 4 м.
Вид битрейта                             : Постоянный
Битрейт                                  : 448 Кбит/сек
Каналы                                   : 2 канала
Расположение каналов                     : Front: L R
Частота                                  : 48,0 КГц
Частота кадров                           : 31,250 кадров/сек (1536 spf)
Битовая глубина                          : 16 бит
Метод сжатия                             : С потерями
Размер потока                            : 398 Мбайт (19%)
Выравнивание                             : Разделение по промежуткам
Продолжительность промежутка             : 40  мс. (1,00 видеокадр)
Время предзагрузки промежутка            : 500  мс.
Рейтинг@Mail.ru