Юмор года 2016 (2017.01.01-03, Телепередача, юмор, SATRip) [части 1-2 из 2]

 

Создавать темы 05-Янв-2017 19:32

- Юмор года 2016 (части 1-2 из 2) - Телекомпания: Россия
Жанр: Телепередача, юмор
Ведущие: Максим Галкин и Николай Басков
Описание:
На телеканале "Россия" летняя Юрмала встречает Новый год со смехом. Ни летняя жара, ни зимний холод не мешают артистам, не теряющим чувства юмора при любой погоде, веселить публику.
Международный фестиваль "Юрмала–2016" - главное юмористическое событие уходящего года!
В праздничном дайджесте фестиваля телезрителей ждут незабываемые встречи с любимыми артистами: Еленой Воробей, Евгением Петросяном, Владимиром Винокуром, Игорем Маменко, Александром и Валерием Пономаренко, Лионом Измайловым, Сергеем Дроботенко, Ефимом Шифриным, Еленой Степаненко, Максимом Галкиным, Юрием Аскаровым.

Релиз от: -=DeMoH=-
Продолжительность: 03:27:42
Качество видео: SATRip
Субтитры: Отсутствуют
Видео: MPEG4, XviD, 720x448 (1.607), 25.000 fps, 1 799 Kbps (0.223 bit/pixel)
Аудио: AC-3, 48.0 KHz, 2 ch, 192 Kbps, CBR

МИ

Общее
Полное имя                               : D:\[1]\Юмор года\Юмор года (2017)\Юмор года (2017.01.01).avi
Формат                                   : AVI
Формат/Информация                        : Audio Video Interleave
Размер файла                             : 1,67 Гбайт
Продолжительность                        : 1 ч. 59 м.
Общий поток                              : 2000 Кбит/сек
Программа кодирования                    : VirtualDubMod 1.5.10.3 | [url=http://www.virtualdub-fr.org]www.virtualdub-fr.org[/url] || (build 2550/release)
Библиотека кодирования                   : VirtualDubMod build 2550/release
Видео
Идентификатор                            : 0
Формат                                   : MPEG-4 Visual
Профиль формата                          : Advanced [email protected]
Параметр BVOP формата                    : 2
Параметр QPel формата                    : Нет
Параметр GMC формата                     : Без точки перехода
Параметр матрицы формата                 : Default (H.263)
Идентификатор кодека                     : XVID
Идентификатор кодека/Подсказка           : XviD
Продолжительность                        : 1 ч. 59 м.
Битрейт                                  : 1799 Кбит/сек
Ширина                                   : 720 пикселей
Высота                                   : 448 пикселей
Соотношение сторон                       : 16:10
Частота кадров                           : 25,000 кадров/сек
Цветовое пространство                    : YUV
Субдискретизация насыщенности            : 4:2:0
Битовая глубина                          : 8 бит
Тип развёртки                            : Прогрессивная
Метод сжатия                             : С потерями
Бит/(Пиксели*Кадры)                      : 0.223
Размер потока                            : 1,50 Гбайт (90%)
Библиотека кодирования                   : XviD 1.2.1 (UTC 2008-12-04)
Аудио
Идентификатор                            : 1
Формат                                   : AC-3
Формат/Информация                        : Audio Coding 3
Расширение режима                        : CM (complete main)
Параметр Endianness формата              : Big
Идентификатор кодека                     : 2000
Продолжительность                        : 1 ч. 59 м.
Вид битрейта                             : Постоянный
Битрейт                                  : 192 Кбит/сек
Каналы                                   : 2 канала
Расположение каналов                     : Front: L R
Частота                                  : 48,0 КГц
Битовая глубина                          : 16 бит
Метод сжатия                             : С потерями
Размер потока                            : 164 Мбайт (10%)
Выравнивание                             : Разделение по промежуткам
Продолжительность промежутка             : 40  мс. (1,00 видеокадр)
Время предзагрузки промежутка            : 500  мс.
Скриншоты:
Рейтинг@Mail.ru