Наркотрафик / Сезон 1/Серии 1 - 24 из 24 (Наталия Бучнева, Николай Борц, Пётр Забелин, Андрей Балашов, Стас Мареев, Павел Симонов) [2012 г., Боевик, криминал, детектив, SATRip]

 

Создавать темы 11-Янв-2014 04:00

Наркотрафик--- Год выпуска: 2012 г.
Страна: Россия ,Гамма-продакшн, Телекомпания НТВ
Жанр: Боевик, криминал, детектив
Сезон/Серия: Сезон 1/Серии 1-24 из 24
Продолжительность: 24 х 01:30:02
Cубтитры: нет
Режиссер: Наталия Бучнева, Николай Борц, Пётр Забелин, Андрей Балашов, Стас Мареев, Павел Симонов
В ролях: Роман Грибков, Сергей Барковский, Денис Синявский, Константин Воробьёв, Анастасия Задорожная,Тара Амирханова, Александр Орловский, Олег Алмазов,Андрей Полищук, Максим Студеновский, Виктор Выбриенко, Иван Мартынов (II), Оксана Скакун, Евгений Добряков, Даниил Кокин, Сергей Кошонин, Леонид Нечаев (II), Илья Сидоров, Владимир Бирюков, Мария Иванова (IV)
Описание: Фильм снят по мотивам романа Сергея Соболева «Танцы с волками». В России все больше жертв нового наркотика. "Дикий мед" - сильнейший допинг, способный даже "ботаника" наделить нечеловеческой силой и агрессивностью хищника. На вид - обычный пластырь. Привыкание - с первой дозы. Как оказалось, это секретная разработка еще времен СССР, которая теперь она попала в руки преступников. О них ничего не известно - преступная организация возникла как будто из ниоткуда, но размах впечатляет: ее боятся местные наркобароны, она стремиться завоевать международный рынок. Это могущественный, расчетливый, жестокий противник. Чтобы обезвредить его, создается специальная группа.
Сэмпл
Качество: SATRip
Формат видео: AVI
Видео кодек: XviD
Аудио кодек: AC3
Видео: 720x400 (1.80:1), 25 fps, XviD MPEG-4 ~1520 kbps avg, 0.21 bit/pixel
Аудио: 48 kHz, AC3 Dolby Digital, 2/0 (L,R) ch, ~192 kbps

Скриншоты

MediaInfo

Общее
Полное имя : D:\Мои фильмы\Narkotrafik_01-24iz24_2012_XviD_SATRip\Narkotrafik_S1_01-02_iz_24_2012_SATRip.avi
Формат : AVI
Формат/Информация : Audio Video Interleave
Размер файла : 1,08 Гбайт
Продолжительность : 1 ч. 29 м.
Общий поток : 1723 Кбит/сек
Программа кодирования : VirtualDubMod 1.5.10.2 (build 2540/release)
Библиотека кодирования : VirtualDub build 35503/release
Видео
Идентификатор : 0
Формат : MPEG-4 Visual
Профиль формата : Advanced [email protected]
Параметр BVOP формата : 2
Параметр QPel формата : Нет
Параметр GMC формата : Без точки перехода
Параметр матрицы формата : Default (H.263)
Режим смешивания : Сжатый битовый поток
Идентификатор кодека : XVID
Идентификатор кодека/Подсказка : XviD
Продолжительность : 1 ч. 29 м.
Битрейт : 1521 Кбит/сек
Ширина : 720 пикселей
Высота : 400 пикселей
Соотношение сторон : 16:9
Частота кадров : 25,000 кадров/сек
Цветовое пространство : YUV
Субдискретизация насыщенности : 4:2:0
Битовая глубина : 8 бит
Тип развёртки : Прогрессивная
Метод сжатия : С потерями
Бит/(Пиксели*Кадры) : 0.211
Размер потока : 979 Мбайт (88%)
Библиотека кодирования : XviD 64
Аудио
Идентификатор : 1
Формат : AC-3
Формат/Информация : Audio Coding 3
Расширение режима : CM (complete main)
Параметр Endianness формата : Big
Идентификатор кодека : 2000
Продолжительность : 1 ч. 29 м.
Вид битрейта : Постоянный
Битрейт : 192 Кбит/сек
Каналы : 2 канала
Расположение каналов : Front: L R
Частота : 48,0 КГц
Битовая глубина : 16 бит
Метод сжатия : С потерями
Размер потока : 124 Мбайт (11%)
Выравнивание : Соединение по промежуткам
Продолжительность промежутка : 40 мс. (1,00 видеокадр)
Время предзагрузки промежутка : 512 мс.
Яндекс.Метрика
Рейтинг@Mail.ru