Враг государства / Enemy of the State (Тони Скотт / Tony Scott) [1998 г., боевик, триллер, драма, DVDRip] AVO (Гаврилов, Живов) + MVO

 

Создавать темы 11-Янв-2014 03:37

Враг государства / Enemy of the State
Год выпуска: 1998
Мировая премьера: 16 ноября 1998
Дата выхода DVD: 18 июня 2009, «Уолт Дисней Компани СНГ»
Производство: США
Жанр: боевик, триллер, драма
Продолжительность: 02:12:10
Перевод: Авторский (одноголосый) + Профессиональный (многоголосый)
Оригинальный аудиопоток: Отсутствует
Автор(ы) перевода: А. Гаврилов, Ю. Живов
Режиссер: Тони Скотт / Tony Scott
В ролях: Уилл Смит, Джин Хэкмен, Джон Войт, Лиза Боне, Реджина Кинг, Стюарт Уилсон, Лаура Кайот, Лорен Дин, Бэрри Пеппер, Иэн Харт..
Описание: Роковое стечение обстоятельств неожиданно наносит мощный удар по блестящей карьере и счастливой семейной жизни адвоката Роберта Дина: его обвиняют в убийстве, которого он не совершал. Дин понимает, что это связано с политическими интригами общенационального масштаба.
Его противником оказывается руководитель крупного департамента Агентства национальной безопасности Томас Брайан Рейнольдс. Дина лишают престижной высокооплачиваемой работы, семьи; из всех электронных баз удаляют его личные данные.
Доп. информация: Рип сделан с DVD5 vik19662007, за который ему поклон.
Сэмпл, , КиноПоиск
Источник/Качество: DVDRip
Формат: AVI
Видео кодек: XviD
Аудио кодек: AC3
Видео: 720x304 (2.37:1), 23.976 fps, XviD build 64 ~1380 kbps avg, 0.26 bit/pixel
Аудио: 48 kHz, AC3 Dolby Digital, 3/2 (L,C,R,l,r) + LFE ch, ~448 kbps (Гаврилов)
Аудио #2: 48 kHz, AC3 Dolby Digital, 3/2 (L,C,R,l,r) + LFE ch, ~448 kbps (Живов)
Аудио #3: 48 kHz, AC3 Dolby Digital, 3/2 (L,C,R,l,r) + LFE ch, ~448 kbps (MVO)
Субтитры: нет

Награды

Рецензия

Наш мир неуклонно развивается во всех направлениях, и в частности, в средствах для наблюдения за гражданами стран. Этот фильм расскажет нам о возможностях государства, превратившего простого американца в своего врага.
Все начинается с убийства влиятельного конгрессмена, выступающего против закона о широком применении средств дальней связи в отношении любого жителя США. Момент убийства был случайно запечатлен на камеру, а пленка, принося смерть своим владельцам, попадает в руки молодого чернокожего юриста. Заинтересованные лица в Агентстве Национальной Безопасности переворачивают его жизнь вверх тормашками. Он лишается всего в жизни, а за ним самим начинается охота с применением самых современных технологических достижений.
Картина Тони Скотта, прежде всего, уникальна своей напряженностью и увлекательным сюжетом. Сцена за сценой нас проводят за кулисы государственной мощи Америки. Датчики слежения, видео устройства, подслушивающие жучки, использование спутников, — в ход пускают все доступные средства. То, что происходит на экране, совершенно завораживает, рассказывая уникальную историю. Ни для кого не секрет, что у разведки США есть такие возможности, но когда смотришь фильм Враг государства, эмоции закипают, а кончики ваших нервов накаляются. Напряжение нарастает с каждой новой сценой, с каждой погоней. А когда появляется персонаж Джина Хэкмена, зритель получает объяснение многих вещей, снова углубляясь в саму структуру власти. Эти диалоги с главным героем особенно интересны.
Перед нами увлекательный экшен, сюжет которого кажется знакомым, но неординарно и целостно поданным, и увлекает вас настолько, что просто не хочется, чтобы фильм заканчивался. Два часа удовольствия.

Media Info

General
Complete name : D:\Torrent\Vrag.gosudarstva.1998.DVDRip.XviD.AC3.2xAVO+MVO.by_feld.avi
Format : AVI
Format/Info : Audio Video Interleave
Format profile : OpenDML
File size : 2.52 GiB
Duration : 2h 12mn
Overall bit rate : 2 732 Kbps
Writing application : VirtualDubModRus 1.5.10.2 (build 2542/release)
Writing library : VirtualDubMod build 2542/release
Video
ID : 0
Format : MPEG-4 Visual
Format profile : Advanced [email protected]
Format settings, BVOP : Yes
Format settings, QPel : No
Format settings, GMC : No warppoints
Format settings, Matrix : Default (MPEG)
Codec ID : XVID
Codec ID/Hint : XviD
Duration : 2h 12mn
Bit rate : 1 365 Kbps
Width : 720 pixels
Height : 304 pixels
Display aspect ratio : 2.35:1
Frame rate : 23.976 fps
Color space : YUV
Chroma subsampling : 4:2:0
Bit depth : 8 bits
Scan type : Progressive
Bits/(Pixel*Frame) : 0.260
Stream size : 1.26 GiB (50%)
Writing library : XviD 64
Audio #1
ID : 1
Format : AC-3
Format/Info : Audio Coding 3
Mode extension : CM (complete main)
Codec ID : 2000
Duration : 2h 12mn
Bit rate mode : Constant
Bit rate : 448 Kbps
Channel(s) : 6 channels
Channel positions : Front: L C R, Side: L R, LFE
Sampling rate : 48.0 KHz
Bit depth : 16 bits
Stream size : 424 MiB (16%)
Alignment : Split accross interleaves
Interleave, duration : 42 ms (1.00 video frame)
Interleave, preload duration : 500 ms
Audio #2
ID : 2
Format : AC-3
Format/Info : Audio Coding 3
Mode extension : CM (complete main)
Codec ID : 2000
Duration : 2h 12mn
Bit rate mode : Constant
Bit rate : 448 Kbps
Channel(s) : 6 channels
Channel positions : Front: L C R, Side: L R, LFE
Sampling rate : 48.0 KHz
Bit depth : 16 bits
Stream size : 424 MiB (16%)
Alignment : Split accross interleaves
Interleave, duration : 42 ms (1.00 video frame)
Interleave, preload duration : 500 ms
Audio #3
ID : 3
Format : AC-3
Format/Info : Audio Coding 3
Mode extension : CM (complete main)
Codec ID : 2000
Duration : 2h 12mn
Bit rate mode : Constant
Bit rate : 448 Kbps
Channel(s) : 6 channels
Channel positions : Front: L C R, Side: L R, LFE
Sampling rate : 48.0 KHz
Bit depth : 16 bits
Stream size : 424 MiB (16%)
Alignment : Split accross interleaves
Interleave, duration : 42 ms (1.00 video frame)
Interleave, preload duration : 500 ms

Скриншоты

Яндекс.Метрика
Рейтинг@Mail.ru