Подозреваемый / Person of Interest (Сезон 3, Серии 12 из 22) (Джей Джей Абрамс / J.J. Abrams ...) [2013г., Боевик, Триллер, Драма, Детектив, WEB-DLRip] MVO (LostFilm) [обновляемая]

 

Создавать темы 11-Янв-2014 03:02

Подозреваемый / Person of Interest
«Ever think you're being watched?»
- Русское название: Подозреваемый
Оригинальное название: Person of Interest
Страна: США
Год выпуска: 2013
Жанр: Боевик, Триллер, Драма, Детектив, ...-Озвучка: Студия LostFilm
Перевод: Многоголосый закадровый, профессиональный-Режиссер: Джей Джей Абрамс / J.J. Abrams, Брайан Берк / Bryan Burk , Кэти Линг / Kathy Lingg ...
Актеры: Джеймс Кэвизел, Майкл Эмерсон, Тараджи П. Хенсон, Кевин Чэпмен, Роберт Джон Бёрк, Бреннан Браун, Эл Сапьенза, Энрико Колантони, Бретт Каллен, Джей О. Сэндерс ...-Описание фильма:
Мистер Финч — загадочный миллиардер, разработавший компьютерную программу, которая предсказывает будущих жертв преступлений. Финч нанимает Риза — бывшего агента ЦРУ, предполагаемо, мертвого, чтобы помочь остановить эти преступления, используя ресурсы и технику Финча, и навыки и знания Риза.-Сезон: 3
Серии: 12 из 22 серий
Продолжительность: ~ 00:44:00 мин серия-Качество видео: WEB-DLRip
Формат: AVI
Видеокодек: XviD
Аудиокодек: Mp3
Видео: MPEG-4 Visual at 1236 Кбит/сек, 720 x 400 (1.800) at 23.976 fps, 0.204 Бит/Пиксели
Аудио: MPEG Audio at 192 Кбит/сек, 2 канала, 48,0 КГц
- --

Список серий:

  • Свобода (Liberty)
  • Нечего скрывать (Nothing to Hide)
  • Дон Жуан (Lady Killer)
  • Обоснованное сомнение (Reasonable Doubt)
  • Разговор (Razgovor)
  • Преждевременная смерть (Mors Praematura)
  • Идеальная цена (The Perfect Mark)
  • Развязка (Endgame)
  • Переход (The Crossing)
  • Доля дьявола (The Devil's Share)
  • Лета - река забвения (Lethe)
  • Разоблачение (Aletheia)
-

MediaInfo:

Общее
Полное имя                               : D:\Торро\Сериалы\Подозреваемый (Person of Interest)\Person.of.Interest.S02.rus.LostFilm\Person.of.Interest.S02E01.rus.LostFilm.TV.avi
Формат                                   : AVI
Формат/Информация                        : Audio Video Interleave
Размер файла                             : 491 Мбайт
Продолжительность                        : 44 м.
Общий поток                              : 1551 Кбит/сек
Программа кодирования                    : Nandub v1.0rc2
Библиотека кодирования                   : Nandub build 1853/release
Видео
Идентификатор                            : 0
Формат                                   : MPEG-4 Visual
Профиль формата                          : [email protected]
Параметр BVOP формата                    : Нет
Параметр QPel формата                    : Нет
Параметр GMC формата                     : Без точки перехода
Параметр матрицы формата                 : Default (H.263)
Идентификатор кодека                     : XVID
Идентификатор кодека/Подсказка           : XviD
Продолжительность                        : 44 м.
Битрейт                                  : 1410 Кбит/сек
Ширина                                   : 720 пикселей
Высота                                   : 400 пикселей
Соотношение сторон                       : 16:9
Частота кадров                           : 23,976 кадра/сек
Цветовое пространство                    : YUV
Субдискретизация насыщенности            : 4:2:0
Битовая глубина                          : 8 бит
Тип развёртки                            : Прогрессивная
Метод сжатия                             : С потерями
Бит/(Пиксели*Кадры)                      : 0.204
Размер потока                            : 446 Мбайт (91%)
Библиотека кодирования                   : XviD 1.2.1 (UTC 2008-12-04)
Аудио
Идентификатор                            : 1
Формат                                   : MPEG Audio
Версия формата                           : Version 1
Профиль формата                          : Layer 3
Режим                                    : Joint stereo
Расширение режима                        : MS Stereo
Идентификатор кодека                     : 55
Идентификатор кодека/Подсказка           : MP3
Продолжительность                        : 44 м.
Вид битрейта                             : Постоянный
Битрейт                                  : 128 Кбит/сек
Каналы                                   : 2 канала
Частота                                  : 48,0 КГц
Метод сжатия                             : С потерями
Размер потока                            : 40,5 Мбайт (8%)
Выравнивание                             : Соединение по промежуткам
Продолжительность промежутка             : 24  мс. (0,58 видеокадр)
Время предзагрузки промежутка            : 480  мс.
-

Скриншот c названием фильма

-Скриншоты:
-

Еще

-

Внимание! Раздача ведётся путём добавления новых серий!

Внимание! Раздача ведётся путём добавления новых серий; при каждом добавлении создётся новый торрент. Чтобы начать докачку новой серии, пользователям необходимо сделать следующее:
(1) остановить скачивание,
(2) удалить старый торрент у себя из клиента (старые серии удалять не надо),
(3) скачать новый торрент и запустить его у себя в клиенте вместо старого, при этом указать клиенту путь в старую папку куда и должно происходить скачивание новых серий.
Ваш клиент при этом должен произвести хеширование (проверку) старой папки (если не производит сам - помогите ему сделать это), и будет докачивать только те серии которых у вас ещё нет. Старые серии при этом не удаляются, а продолжают раздаваться!
Eсли вы уже удалили старые серии, то предотвратить повторную закачку старых серий можно, отжав галочку в соответсвующих местах при запуске нового торрента.
-Добавлена двенадцатая серия третьего сезона
Яндекс.Метрика
Рейтинг@Mail.ru