[ Сегодня на трекере фрилич! Идет свободное скачивание без начисления Download ]

Почти человек / Almost Human (Сезон 1, Серии 7 из 13) (Брэд Андерсон / Brad Anderson, ...) [2013г.,фантастика, боевик, драма, ... WEB-DLRip] MVO (AlexFilm) [обновляемая]

 

Создавать темы 11-Янв-2014 02:48

Почти человек / Almost Human
«Some cops are born. Others are made»
- Русское название: Почти человек
Оригинальное название: Almost Human
Страна: США
Год выпуска: 2013
Жанр: фантастика, боевик, драма, ...-Перевод: Многоголосый закадровый, профессиональный
Релиз группы: AlexFilm
Озвучка: Евгения Тихонова, Михаил Суслов, Роман Сопко, Константин Погодаев
Монтаж и сведение звука: Михаил Шорыгин
Автор перевода: Ольга Галайда
Постер: Андрей Шапал-Премьера (мир): 17 ноября 2013-Режиссер: Брэд Андерсон / Brad Anderson, Майкл Оффер / Michael Offer, Ларри Тенг / Larry Teng ...
В главных ролях: Карл Урбан, Майкл Или, Минка Келли, Майкл Ирби, Макензи Крук, Лили Тейлор, Андрей Ковски, Лиэнн Адачи, Джейсон Асунсьон, Ёсиэ Бэнкрофт, Джо Смит, Кэролайн Мэтьюз, Джейм Каллика, Элла Томас, Андрей Ковски ...-Описание фильма:
Действие происходит в будущем, когда порядок на улицах городов обеспечивают не только «живые» полицейские, но и высокотехнологичные андроиды.
Джон Кеннекс — полицейский, который пережил одну из самых катастрофических атак на департамент полиции. Очнувшись после 17 месяцев пребывания в коме, он не может вспомнить много, но точно помнит, что его напарника убили. Его девушка ушла от него сразу после нападения. Джон потерял ногу и теперь ее заменяет сложная синтетическая конструкция…-Сезон: 1
Серии: 7 из 13 серий
Продолжительность: ~ 00:45:00 мин серия-Качество видео: WEB-DLRip
Формат: AVI
Видеокодек: XviD
Аудиокодек: Mp3
Видео: MPEG-4 Visual at 1352 Кбит/сек, 720 x 400 (1.800) at 23.976 fps, 0.196 Бит/Пиксели
Аудио Rus: MPEG Audio at 128 Кбит/сек, 2 канала, 48,0 КГц |AlexFilm|
Аудио Eng: MPEG Audio at 128 Кбит/сек, 2 канала, 48,0 КГц |Original|
- -

Список серий:

  • Пилот (Pilot)
  • Кожа (Skin)
  • На связи (Are You Receiving?)
  • Кессонная дурь (The Bends)
  • Кровные братья (Blood Brothers)
  • Аритмия (Arrhythmia)
  • Саймон говорит (Simon Says)
-

MediaInfo:

Общее
Полное имя                               : E:\_Сериалы\111\Почти человек\Almost Human 1-AlexFilm\Almost.Human.s01e01.WEB-DLRip.Rus.Eng.AlexFilm.avi
Формат                                   : AVI
Формат/Информация                        : Audio Video Interleave
Размер файла                             : 530 Мбайт
Продолжительность                        : 45 м.
Общий поток                              : 1622 Кбит/сек
Название фильма                          : Almost Human 1x01 Pilot @ AlexFilm
Программа кодирования                    : VirtualDubMod 1.5.10.2 (build 2542/release)
Библиотека кодирования                   : VirtualDubMod build 2542/release
Видео
Идентификатор                            : 0
Формат                                   : MPEG-4 Visual
Профиль формата                          : Advanced [email protected]
Параметр BVOP формата                    : 1
Параметр QPel формата                    : Нет
Параметр GMC формата                     : Без точки перехода
Параметр матрицы формата                 : Default (MPEG)
Идентификатор кодека                     : XVID
Идентификатор кодека/Подсказка           : XviD
Продолжительность                        : 45 м.
Битрейт                                  : 1352 Кбит/сек
Ширина                                   : 720 пикселей
Высота                                   : 400 пикселей
Соотношение сторон                       : 16:9
Частота кадров                           : 23,976 кадра/сек
Цветовое пространство                    : YUV
Субдискретизация насыщенности            : 4:2:0
Битовая глубина                          : 8 бит
Тип развёртки                            : Прогрессивная
Метод сжатия                             : С потерями
Бит/(Пиксели*Кадры)                      : 0.196
Размер потока                            : 442 Мбайт (83%)
Библиотека кодирования                   : XviD 1.2.1 (UTC 2008-12-04)
Аудио #1
Идентификатор                            : 1
Формат                                   : MPEG Audio
Версия формата                           : Version 1
Профиль формата                          : Layer 3
Режим                                    : Joint stereo
Расширение режима                        : MS Stereo
Идентификатор кодека                     : 55
Идентификатор кодека/Подсказка           : MP3
Продолжительность                        : 45 м.
Вид битрейта                             : Постоянный
Битрейт                                  : 128 Кбит/сек
Каналы                                   : 2 канала
Частота                                  : 48,0 КГц
Метод сжатия                             : С потерями
Размер потока                            : 41,9 Мбайт (8%)
Выравнивание                             : Соединение по промежуткам
Продолжительность промежутка             : 42  мс. (1,00 видеокадр)
Время предзагрузки промежутка            : 504  мс.
Заголовок                                : Russian (AlexFilm)
Аудио #2
Идентификатор                            : 2
Формат                                   : MPEG Audio
Версия формата                           : Version 1
Профиль формата                          : Layer 3
Режим                                    : Joint stereo
Расширение режима                        : MS Stereo
Идентификатор кодека                     : 55
Идентификатор кодека/Подсказка           : MP3
Продолжительность                        : 45 м.
Вид битрейта                             : Постоянный
Битрейт                                  : 128 Кбит/сек
Каналы                                   : 2 канала
Частота                                  : 48,0 КГц
Метод сжатия                             : С потерями
Размер потока                            : 41,9 Мбайт (8%)
Выравнивание                             : Соединение по промежуткам
Продолжительность промежутка             : 42  мс. (1,00 видеокадр)
Время предзагрузки промежутка            : 504  мс.
Заголовок                                : English
-

Скриншот c названием фильма

-Скриншоты:
-

Еще

-

Внимание! Раздача ведётся путём добавления новых серий!

Внимание! Раздача ведётся путём добавления новых серий; при каждом добавлении создётся новый торрент. Чтобы начать докачку новой серии, пользователям необходимо сделать следующее:
(1) остановить скачивание,
(2) удалить старый торрент у себя из клиента (старые серии удалять не надо),
(3) скачать новый торрент и запустить его у себя в клиенте вместо старого, при этом указать клиенту путь в старую папку куда и должно происходить скачивание новых серий.
Ваш клиент при этом должен произвести хеширование (проверку) старой папки (если не производит сам - помогите ему сделать это), и будет докачивать только те серии которых у вас ещё нет. Старые серии при этом не удаляются, а продолжают раздаваться!
Eсли вы уже удалили старые серии, то предотвратить повторную закачку старых серий можно, отжав галочку в соответсвующих местах при запуске нового торрента.
-Добавлена седьмая серия первого сезона
Яндекс.Метрика
Рейтинг@Mail.ru